Ссылка на приватное зеркало нашего сайта всего за 1$. Внимание количество ограничено!!!

2 сезон

iTunes

1 сезон

1

iTunes

iTunes

iTunes

1 сезон

RePack

30

ИГРА 18+

pack

ВАЖНО

!!Акция!!

Alien_RageХит недели

RePack

MK11
pack

Забери бонус

RePack

jed

!!Акция!!

Alien_Rage

RePack

fifa19

RePack

Assassins Creed: Odyssey

RePack

NEED FOR SPEED™ PAYBACK

4 сезон

9 сезон

Бесстыжие 9 сезон

Все сериалы

все сериалы на PB.wtf

RePack

FAR CRY 5
  

Каджаки: Правдивая история / Kajaki (Пол Катис) [2014, триллер, драма, приключения, HDRip] DVO pb.wtf

Каджаки: Правдивая история через торрент pb.wtf

Размер: 1.46 GB | Добавлен: 5 лет 2 мес. назад | Торрент скачан:180 раз
Скачать  

04-08-2015 08:27 Каджаки: Правдивая история Скачать торрент  

Каджаки: Правдивая история / Kajaki
«A film about bravery, courage, heroism and the ultimate sacrifice»


Год выпуска: 2014
Страна: Великобритания, Иордания
Жанр: триллер, драма, приключения, военный
Продолжительность: 01:48:15
Перевод: Любительский (двухголосый) [Lucky Strike]
Режиссер: Пол Катис
В ролях: Марк Стэнли (Tug), Дэвид Эллиот (Mark Wright), Малачи Кирби (Snoop), Пол Любке (Jay Davis), Скотт Кайл (Stu Pearson), Бенжамин О’Махони (Stu Hale), Энди Гиббинс (Smudge), Али Кук (Spud McMellon), Роберт Митчелл (Faz), Грант Килбёрн (Alex Craig), Лайам Эйнсуорт (Ken Barlow), Брайан Парри (Jonesy)
Описание:
2006 год. Плотина Каджаки. Компания молодых британских солдат встречает на пути опасного врага. Каждый шаг-вероятность наступить на мину, которая может отобрать либо ногу, либо жизнь..

Качество: HDRip
Формат: AVI
Видео кодек: XviD
Аудио кодек: AC3
Видео: XviD, 720x304 (2.35:1), 1787 kbps, 24 fps, 0,340 bpp
Аудио: AC3 / 2.0 / 48 kHz / 128 kbps / 16 bit

Код:

General
Complete name                            : E:\торент\Kajaki.2014.L2.HDRip.1.46GB.avi
Format                                   : AVI
Format/Info                              : Audio Video Interleave
File size                                : 1.46 GiB
Duration                                 : 1h 48mn
Overall bit rate                         : 1 925 Kbps
Movie name                               : Kajaki.2014.L2.HDRip.1.46GB
Director                                 : Carl Gaus
Writing application                      : VirtualDubMod 1.5.10.3 | www.virtualdub-fr.org || (build 2550/release)
Copyright                                :

Video
ID                                       : 0
Format                                   : MPEG-4 Visual
Format profile                           : Advanced Simple@L5
Format settings, BVOP                    : 2
Format settings, QPel                    : No
Format settings, GMC                     : No warppoints
Format settings, Matrix                  : Default (MPEG)
Codec ID                                 : XVID
Codec ID/Hint                            : XviD
Duration                                 : 1h 48mn
Bit rate                                 : 1 787 Kbps
Width                                    : 720 pixels
Height                                   : 304 pixels
Display aspect ratio                     : 2.35:1
Frame rate                               : 24.000 fps
Color space                              : YUV
Chroma subsampling                       : 4:2:0
Bit depth                                : 8 bits
Scan type                                : Progressive
Compression mode                         : Lossy
Bits/(Pixel*Frame)                       : 0.340
Stream size                              : 1.35 GiB (93%)
Writing library                          : XviD 1.2.1 (UTC 2008-12-04)

Audio
ID                                       : 1
Format                                   : AC-3
Format/Info                              : Audio Coding 3
Mode extension                           : CM (complete main)
Codec ID                                 : 2000
Duration                                 : 1h 48mn
Bit rate mode                            : Constant
Bit rate                                 : 128 Kbps
Channel(s)                               : 2 channels
Channel positions                        : Front: L R
Sampling rate                            : 48.0 KHz
Bit depth                                : 16 bits
Compression mode                         : Lossy
Stream size                              : 99.1 MiB (7%)
Alignment                                : Split accross interleaves
Interleave, duration                     : 42 ms (1.00 video frame)
Interleave, preload duration             : 500 ms

pb.wtf



Скачать Каджаки: Правдивая история через торрент http://pic1.kartinco.top/images/10/hpg91.jpg Скачать фильм Каджаки: Правдивая история через торрент бесплантно в хорошем качестве Описание: 2006 год. Плотина Каджаки. Компания молодых британских солдат встречает на пути опасного врага. Каждый шаг-вероятность наступить ... 9.7 10 10
Торрент: Зарегистрирован [2015-08-04 08:27] · скачан: 180 раз
Статус: T временная
Размер: 1.46 GB
Как cкачать? Как скачать Каджаки: Правдивая история через торрент | qTorrent

% Раздел Тема Автор DL S | L
T Фильмы [HD 720p, 1080p] (Звук Cam, VO, DVO) [ 9.69 GB ] Каджаки: Правдивая история / Kajaki [2014 BDRip 1080p] DVO Newton5 Скачать
1 | 0


Последний раз редактировалось: Newton5 (2015-08-04 13:07), всего редактировалось 1 раз

28-11-2019 20:33  

Отключить всю рекламу на сайте

04-08-2015 12:14 Каджаки: Правдивая история Скачать торрент  

А реклама от "Вулкана" на кой? Удалил из-за рекламы...pb.wtf



    Дорогой пользователь! Огромная просьба, поблагодарите релизера, оцените раздачу и оставьте свои комментарий, если Вы скачали Каджаки: Правдивая история через торрент бесплатно! Внесите свою лепту в развитие PiratBit!
    Комментировать посты могут только пользователи прошедшие не сложную регистрацию
    Показать сообщения:    

    Каджаки: Правдивая история через торрент
    Скачать бесплатно Каджаки: Правдивая история
    Каджаки: Правдивая история скачать торрент
    Каджаки: Правдивая история смотреть онлайн
    Cкачать фильм Каджаки: Правдивая история бесплатно
    Каджаки: Правдивая история скачать торрент в хорошем качестве
    Каджаки: Правдивая история смотреть онлайн бесплатно в хорошем качестве


    Вы не можете начинать темы
    Вы не можете отвечать на сообщения
    Вы не можете редактировать свои сообщения
    Вы не можете удалять свои сообщения
    Вы не можете голосовать в опросах
    Вы не можете прикреплять файлы к сообщениям
    Вы можете скачивать файлы