Ссылка на приватное зеркало всего за 1$. Внимание количество ограничено!!!

OK

1+1

iTunes

мы

OK

1

WEB-DLRip

Джокер

Пифагор

Ведьмак / The Witcher сериал

Лицензия

ПШазам

ОК

Оно 2

iTunes

30
pack

Вам бонус

ВАЖНО

!!Акция!!

Alien_RageХит недели

RePack

Resident Evil 21

ИГРА 18+

pack

RePack

jed

!!Акция!!

Alien_Rage

RePack

fifa19

RePack

Assassins Creed: Odyssey

RePack

NEED FOR SPEED™ PAYBACK

4 сезон

9 сезон

Бесстыжие 9 сезон

Все сериалы

все сериалы на PB.wtf

RePack

FAR CRY 5
  

Дивергент, глава 2: Инсургент / Insurgent (Роберт Швентке) [2015, фантастика, триллер, приключения, BDRip-AVC] DUB - Лицензия / iTunes pb.wtf

Дивергент, глава 2: Инсургент через торрент pb.wtf

Размер: 2.39 GB | Добавлен: 4 года 5 мес. назад | Торрент скачан:159 раз
Скачать  

04-08-2015 10:54 Дивергент, глава 2: Инсургент Скачать торрент  

«В этом мире пора что-то менять»
Год выпуска: 2015
Страна: США
Жанр: фантастика, триллер, приключения
Продолжительность: 01:59:00
Перевод: Дубляж - [Лицензия / iTunes]
Навигация по главам: есть
Субтитры: английские, английские
Режиссер: Роберт Швентке
В ролях: Шейлин Вудли (Tris), Тео Джеймс (Four), Кейт Уинслет (Jeanine), Джай Кортни (Eric), Энсел Элгорт (Caleb), Майлз Теллер (Peter), Зои Кравиц (Christina), Мекхай Файфер (Max), Наоми Уоттс (Evelyn), Октавия Спенсер (Johanna), Рэй Стивенсон (Marcus), Тони Голдуин (Andrew)
Описание:
В новой главе антиутопии об обществе, где все расставлено по полочкам, а любая индивидуальность подлежит искоренению, Трис должна найти способ борьбы со страшной системой, уничтожающей ее близких. Кто из них на очереди? Она узнает все больше страшных подробностей, стоящих за кажущимся порядком, и уже не может не видеть, что в ее мире пора что-то менять. Но главное в этой борьбе - справиться с расколом, который враг порождает в ее собственной душе.
, MPAA: PG-13 - Детям до 13 лет просмотр не желателен
Качество: BDRip-AVC
Формат: MKV
Видео кодек: AVC
Аудио кодек: AC3
Видео: AVC, 1024x428 (2.40:1), 2100 kbps, 23,976 fps, 0,200 bpp
Аудио №1: русский / AC3 / 5.1 / 48 kHz / 384 kbps / 16 bit ||
Аудио №2: английский / AC3 / 5.1 / 48 kHz / 384 kbps / 16 bit

Код:

General
Unique ID                                : 191020633560702698769780643997254966583 (0x8FB53C5E81617E8DA793918A6A105D37)
Complete name                            : E:\торент\Insurgent.2015.D.AVC.BDRip.x264.mkv
Format                                   : Matroska
Format version                           : Version 4 / Version 2
File size                                : 2.39 GiB
Duration                                 : 1h 59mn
Overall bit rate                         : 2 875 Kbps
Encoded date                             : UTC 2015-07-23 17:45:47
Writing application                      : mkvmerge v8.1.0 ('Psychedelic Postcard') 32bit
Writing library                          : Lavf56.22.100
DURATION                                 : 01:47:07.870000000
NUMBER_OF_FRAMES                         : 1398
NUMBER_OF_BYTES                          : 3948230
_STATISTICS_WRITING_APP                  : mkvmerge v8.1.0 ('Psychedelic Postcard') 32bit
_STATISTICS_WRITING_DATE_UTC             : 2015-08-03 21:47:07
_STATISTICS_TAGS                         : BPS DURATION NUMBER_OF_FRAMES NUMBER_OF_BYTES

Video
ID                                       : 1
Format                                   : AVC
Format/Info                              : Advanced Video Codec
Format profile                           : High@L4.1
Format settings, CABAC                   : Yes
Format settings, ReFrames                : 10 frames
Codec ID                                 : V_MPEG4/ISO/AVC
Duration                                 : 1h 59mn
Bit rate                                 : 2 100 Kbps
Width                                    : 1 024 pixels
Height                                   : 428 pixels
Display aspect ratio                     : 2.40:1
Frame rate mode                          : Variable
Frame rate                               : 23.976 fps
Standard                                 : Component
Color space                              : YUV
Chroma subsampling                       : 4:2:0
Bit depth                                : 8 bits
Scan type                                : Progressive
Bits/(Pixel*Frame)                       : 0.200
Stream size                              : 1.70 GiB (71%)
Writing library                          : x264 core 144 r2525
Encoding settings                        : cabac=1 / ref=10 / deblock=1:-1:-1 / analyse=0x3:0x102 / me=umh / subme=9 / psy=1 / psy_rd=0.10:2.00 / mixed_ref=0 / me_range=16 / chroma_me=1 / trellis=1 / 8x8dct=1 / cqm=0 / deadzone=19,19 / fast_pskip=1 / chroma_qp_offset=-3 / threads=6 / lookahead_threads=1 / sliced_threads=0 / nr=0 / decimate=1 / interlaced=0 / bluray_compat=0 / constrained_intra=0 / bframes=3 / b_pyramid=2 / b_adapt=2 / b_bias=3 / direct=3 / weightb=1 / open_gop=0 / weightp=2 / keyint=239 / keyint_min=23 / scenecut=30 / intra_refresh=0 / rc_lookahead=36 / rc=2pass / mbtree=0 / bitrate=2100 / ratetol=1.0 / qcomp=1.00 / qpmin=11 / qpmax=52 / qpstep=6 / cplxblur=20.0 / qblur=0.5 / vbv_maxrate=52000 / vbv_bufsize=62300 / nal_hrd=none / filler=0 / ip_ratio=1.10 / pb_ratio=1.30 / aq=1:1.20
Default                                  : Yes
Forced                                   : No
DURATION                                 : 01:59:00.395000000
NUMBER_OF_FRAMES                         : 171198
NUMBER_OF_BYTES                          : 1871694491
_STATISTICS_WRITING_APP                  : mkvmerge v8.1.0 ('Psychedelic Postcard') 32bit
_STATISTICS_WRITING_DATE_UTC             : 2015-08-03 21:47:07
_STATISTICS_TAGS                         : BPS DURATION NUMBER_OF_FRAMES NUMBER_OF_BYTES

Audio #1
ID                                       : 2
Format                                   : AC-3
Format/Info                              : Audio Coding 3
Mode extension                           : CM (complete main)
Codec ID                                 : A_AC3
Duration                                 : 1h 59mn
Bit rate mode                            : Constant
Bit rate                                 : 384 Kbps
Channel(s)                               : 6 channels
Channel positions                        : Front: L C R, Side: L R, LFE
Sampling rate                            : 48.0 KHz
Bit depth                                : 16 bits
Compression mode                         : Lossy
Delay relative to video                  : -83ms
Stream size                              : 327 MiB (13%)
Language                                 : Russian
Default                                  : Yes
Forced                                   : No

Audio #2
ID                                       : 3
Format                                   : AC-3
Format/Info                              : Audio Coding 3
Mode extension                           : CM (complete main)
Codec ID                                 : A_AC3
Duration                                 : 1h 59mn
Bit rate mode                            : Constant
Bit rate                                 : 384 Kbps
Channel(s)                               : 6 channels
Channel positions                        : Front: L C R, Side: L R, LFE
Sampling rate                            : 48.0 KHz
Bit depth                                : 16 bits
Compression mode                         : Lossy
Delay relative to video                  : -83ms
Stream size                              : 327 MiB (13%)
Language                                 : English
Default                                  : No
Forced                                   : No

Text #1
ID                                       : 4
Format                                   : VobSub
Muxing mode                              : zlib
Codec ID                                 : S_VOBSUB
Codec ID/Info                            : The same subtitle format used on DVDs
Language                                 : English
Default                                  : No
Forced                                   : No

Text #2
ID                                       : 5
Format                                   : VobSub
Muxing mode                              : zlib
Codec ID                                 : S_VOBSUB
Codec ID/Info                            : The same subtitle format used on DVDs
Language                                 : English
Default                                  : No
Forced                                   : No

Menu
00:00:00.000                             : en:00:00:00.000
00:06:11.288                             : en:00:06:11.288
00:13:35.398                             : en:00:13:35.398
00:19:35.007                             : en:00:19:35.007
00:26:39.431                             : en:00:26:39.431
00:34:23.061                             : en:00:34:23.061
00:41:13.846                             : en:00:41:13.846
00:46:34.708                             : en:00:46:34.708
00:53:10.103                             : en:00:53:10.103
00:59:30.358                             : en:00:59:30.358
01:05:59.664                             : en:01:05:59.664
01:13:34.910                             : en:01:13:34.910
01:22:57.931                             : en:01:22:57.931
01:32:04.936                             : en:01:32:04.936
01:39:09.360                             : en:01:39:09.360
01:46:38.642                             : en:01:46:38.642

pb.wtf



Скачать Дивергент, глава 2: Инсургент через торрент http://pic1.kartinco.top/images/10/mqdhq.jpg Скачать фильм Дивергент, глава 2: Инсургент через торрент бесплантно в хорошем качестве Описание: В новой главе антиутопии об обществе, где все расставлено по полочкам, а любая индивидуальность подлежит искоренению, Трис должна ... 8.7 10 13
Торрент: Зарегистрирован [2015-08-04 10:54] · скачан: 159 раз
Статус: √ проверено
Размер: 2.39 GB
Как cкачать? Как скачать Дивергент, глава 2: Инсургент через торрент | qTorrent

% Раздел Тема Автор DL S | L
Фильмы [HD 720p, 1080p] (Хороший звук DUB, MVO) [ 4.68 GB ] Дивергент глава 2: Инсургент / Insurgent [2015 BDRip 720p] DUB - / Newton5 Скачать
1 | 0
Фильмы 2015 [DVDrip, WEB-DLRip, HDrip] [ 2.05 GB ] Дивергент глава 2: Инсургент / Insurgent [2015 HDRip] DUB - / Newton5 Скачать
2 | 0
Фильмы 2015 [DVDrip, WEB-DLRip, HDrip] [ 1.47 GB ] Дивергент глава 2: Инсургент / Insurgent [2015 HDRip] DUB - / Newton5 Скачать
1 | 0

28-11-2019 20:33  

Отключить всю рекламу на сайте

    Дорогой пользователь! Огромная просьба, поблагодарите релизера, оцените раздачу и оставьте свои комментарий, если Вы скачали Дивергент, глава 2: Инсургент через торрент бесплатно! Внесите свою лепту в развитие PiratBit!
    Комментировать посты могут только пользователи прошедшие не сложную регистрацию
    Показать сообщения:    

    Дивергент, глава 2: Инсургент через торрент
    Скачать бесплатно Дивергент, глава 2: Инсургент
    Дивергент, глава 2: Инсургент скачать торрент
    Дивергент, глава 2: Инсургент смотреть онлайн
    Cкачать фильм Дивергент, глава 2: Инсургент бесплатно
    Дивергент, глава 2: Инсургент скачать торрент в хорошем качестве
    Дивергент, глава 2: Инсургент смотреть онлайн бесплатно в хорошем качестве


    Вы не можете начинать темы
    Вы не можете отвечать на сообщения
    Вы не можете редактировать свои сообщения
    Вы не можете удалять свои сообщения
    Вы не можете голосовать в опросах
    Вы не можете прикреплять файлы к сообщениям
    Вы можете скачивать файлы