Ссылка на приватное зеркало нашего сайта всего за 1$. Внимание количество ограничено!!!

2 сезон

iTunes

1 сезон

1

2 сезон

2 сезон

iTunes

1 сезон

RePack

30

Новинка

ВАЖНО

ИГРА 18+

pack

RePack

MK11
pack

Забери бонус

RePack

jed

!!Акция!!

Alien_Rage

RePack

fifa19

RePack

Assassins Creed: Odyssey

RePack

NEED FOR SPEED™ PAYBACK

4 сезон

9 сезон

Бесстыжие 9 сезон

Все сериалы

все сериалы на PB.wtf

RePack

FAR CRY 5
  

Каджаки: Правдивая история / Kajaki (Пол Катис) [2014, триллер, драма, приключения, BDRip 1080p] DVO pb.wtf

Каджаки: Правдивая история через торрент pb.wtf

Размер: 9.69 GB | Добавлен: 5 лет 3 мес. назад | Торрент скачан:11 раз
Скачать  

04-08-2015 12:33 Каджаки: Правдивая история Скачать торрент  

Каджаки: Правдивая история / Kajaki
«A film about bravery, courage, heroism and the ultimate sacrifice»


Год выпуска: 2014
Страна: Великобритания, Иордания
Жанр: триллер, драма, приключения, военный
Продолжительность: 01:48:15
Перевод: Любительский (двухголосый) [Lucky Strike]
Навигация по главам: есть
Субтитры: русские
Режиссер: Пол Катис
В ролях: Марк Стэнли (Tug), Дэвид Эллиот (Mark Wright), Малачи Кирби (Snoop), Пол Любке (Jay Davis), Скотт Кайл (Stu Pearson), Бенжамин О’Махони (Stu Hale), Энди Гиббинс (Smudge), Али Кук (Spud McMellon), Роберт Митчелл (Faz), Грант Килбёрн (Alex Craig), Лайам Эйнсуорт (Ken Barlow), Брайан Парри (Jonesy)
Описание:
2006 год. Плотина Каджаки. Компания молодых британских солдат встречает на пути опасного врага. Каждый шаг-вероятность наступить на мину, которая может отобрать либо ногу, либо жизнь..

Качество: BDRip 1080p
Формат: MKV
Видео кодек: AVC
Аудио кодек: AC3, DTS
Видео: AVC, 1920x808 (2.40:1), 11551 kbps, 24 fps, 0,310 bpp
Аудио №1: русский / AC3 / 2.0 / 48 kHz / 256 kbps / 16 bit ||
Аудио №2: английский / DTS / 5.1 / 48 kHz / 755 kbps / 24 bit

Код:

General
Unique ID                                : 218354984534289745487547803989021513632 (0xA445A3EC25D8AD11B29920945C0757A0)
Complete name                            : E:\торент\Kajaki.2014.L2.BDRip.1080p.mkv
Format                                   : Matroska
Format version                           : Version 4 / Version 2
File size                                : 9.69 GiB
Duration                                 : 1h 48mn
Overall bit rate                         : 12.8 Mbps
Movie name                               : Kajaki.2014.L2.BDRip.1080p
Encoded date                             : UTC 2015-07-26 11:34:54
Writing application                      : mkvmerge v6.9.1 ('Blue Panther') 64bit built on Apr 18 2014 18:23:38
Writing library                          : libebml v1.3.0 + libmatroska v1.4.1

Video
ID                                       : 1
Format                                   : AVC
Format/Info                              : Advanced Video Codec
Format profile                           : High@L4.1
Format settings, CABAC                   : Yes
Format settings, ReFrames                : 5 frames
Codec ID                                 : V_MPEG4/ISO/AVC
Duration                                 : 1h 48mn
Bit rate                                 : 11.5 Mbps
Nominal bit rate                         : 12.5 Mbps
Width                                    : 1 920 pixels
Height                                   : 808 pixels
Display aspect ratio                     : 2.40:1
Frame rate mode                          : Constant
Frame rate                               : 24.000 fps
Color space                              : YUV
Chroma subsampling                       : 4:2:0
Bit depth                                : 8 bits
Scan type                                : Progressive
Bits/(Pixel*Frame)                       : 0.310
Stream size                              : 8.72 GiB (90%)
Title                                    : Kajaki.2014.L2.BDRip.1080p
Writing library                          : x264 core 142 r2431 ac76440
Encoding settings                        : cabac=1 / ref=5 / deblock=1:-1:-1 / analyse=0x3:0x133 / me=umh / subme=10 / psy=1 / psy_rd=1.00:1.00 / mixed_ref=1 / me_range=24 / chroma_me=1 / trellis=2 / 8x8dct=1 / cqm=0 / deadzone=21,11 / fast_pskip=1 / chroma_qp_offset=-4 / threads=16 / lookahead_threads=4 / sliced_threads=0 / nr=0 / decimate=1 / interlaced=0 / bluray_compat=0 / constrained_intra=0 / bframes=14 / b_pyramid=2 / b_adapt=2 / b_bias=0 / direct=3 / weightb=0 / open_gop=0 / weightp=2 / keyint=240 / keyint_min=24 / scenecut=40 / intra_refresh=0 / rc_lookahead=60 / rc=abr / mbtree=1 / bitrate=12500 / ratetol=1.0 / qcomp=0.60 / qpmin=0 / qpmax=69 / qpstep=4 / vbv_maxrate=62500 / vbv_bufsize=78125 / nal_hrd=none / filler=0 / ip_ratio=1.40 / aq=1:1.00
Language                                 : English
Default                                  : Yes
Forced                                   : No
Matrix coefficients                      : BT.709

Audio #1
ID                                       : 2
Format                                   : AC-3
Format/Info                              : Audio Coding 3
Mode extension                           : CM (complete main)
Format settings, Endianness              : Big
Codec ID                                 : A_AC3
Duration                                 : 1h 48mn
Bit rate mode                            : Constant
Bit rate                                 : 256 Kbps
Channel(s)                               : 2 channels
Channel positions                        : Front: L R
Sampling rate                            : 48.0 KHz
Bit depth                                : 16 bits
Compression mode                         : Lossy
Stream size                              : 198 MiB (2%)
Title                                    : Lucky Strike - Kajaki.2014.L2.BDRip.1080p
Language                                 : Russian
Default                                  : Yes
Forced                                   : No

Audio #2
ID                                       : 3
Format                                   : DTS
Format/Info                              : Digital Theater Systems
Mode                                     : 16
Format settings, Endianness              : Big
Codec ID                                 : A_DTS
Duration                                 : 1h 48mn
Bit rate mode                            : Constant
Bit rate                                 : 768 Kbps
Channel(s)                               : 6 channels
Channel positions                        : Front: L C R, Side: L R, LFE
Sampling rate                            : 48.0 KHz
Bit depth                                : 24 bits
Compression mode                         : Lossy
Stream size                              : 595 MiB (6%)
Title                                    : Kajaki.2014.L2.BDRip.1080p
Language                                 : English
Default                                  : No
Forced                                   : No

Text
ID                                       : 4
Format                                   : UTF-8
Codec ID                                 : S_TEXT/UTF8
Codec ID/Info                            : UTF-8 Plain Text
Title                                    : Kajaki.2014.L2.BDRip.1080p
Language                                 : Russian
Default                                  : Yes
Forced                                   : Yes

Menu
00:00:00.000                             : en:Chapter 01
00:10:33.208                             : en:Chapter 02
00:15:10.125                             : en:Chapter 03
00:23:13.500                             : en:Chapter 04
00:31:07.208                             : en:Chapter 05
00:41:58.458                             : en:Chapter 06
00:54:24.500                             : en:Chapter 07
01:03:25.666                             : en:Chapter 08
01:11:30.583                             : en:Chapter 09
01:18:35.708                             : en:Chapter 10
01:27:04.666                             : en:Chapter 11
01:35:37.750                             : en:Chapter 12

pb.wtf



Скачать Каджаки: Правдивая история через торрент http://pic1.kartinco.top/images/10/hpg91.jpg Скачать фильм Каджаки: Правдивая история через торрент бесплантно в хорошем качестве Описание: 2006 год. Плотина Каджаки. Компания молодых британских солдат встречает на пути опасного врага. Каждый шаг-вероятность наступить ... 10 10 4
Торрент: Зарегистрирован [2015-08-04 12:33] · скачан: 11 раз
Статус: T временная
Размер: 9.69 GB
Как cкачать? Как скачать Каджаки: Правдивая история через торрент | qTorrent

% Раздел Тема Автор DL S | L
T Фильмы 2014 (Звук TS, Cam, VO, DVO) [ 1.46 GB ] Каджаки: Правдивая история / Kajaki [2014 HDRip] DVO Newton5 Скачать
1 | 0

28-11-2019 20:33  

Отключить всю рекламу на сайте

04-08-2015 16:39 Каджаки: Правдивая история Скачать торрент  

Каджаки? Последжний джовод королей?pb.wtf



    Дорогой пользователь! Огромная просьба, поблагодарите релизера, оцените раздачу и оставьте свои комментарий, если Вы скачали Каджаки: Правдивая история через торрент бесплатно! Внесите свою лепту в развитие PiratBit!
    Комментировать посты могут только пользователи прошедшие не сложную регистрацию
    Показать сообщения:    

    Каджаки: Правдивая история через торрент
    Скачать бесплатно Каджаки: Правдивая история
    Каджаки: Правдивая история скачать торрент
    Каджаки: Правдивая история смотреть онлайн
    Cкачать фильм Каджаки: Правдивая история бесплатно
    Каджаки: Правдивая история скачать торрент в хорошем качестве
    Каджаки: Правдивая история смотреть онлайн бесплатно в хорошем качестве


    Вы не можете начинать темы
    Вы не можете отвечать на сообщения
    Вы не можете редактировать свои сообщения
    Вы не можете удалять свои сообщения
    Вы не можете голосовать в опросах
    Вы не можете прикреплять файлы к сообщениям
    Вы можете скачивать файлы