Ссылка на приватное зеркало нашего сайта всего за 1$. Внимание количество ограничено!!!

2 сезон

iTunes

1 сезон

1

iTunes

iTunes

iTunes

1 сезон

RePack

30

ИГРА 18+

pack

ВАЖНО

!!Акция!!

Alien_RageХит недели

RePack

MK11
pack

Забери бонус

RePack

jed

!!Акция!!

Alien_Rage

RePack

fifa19

RePack

Assassins Creed: Odyssey

RePack

NEED FOR SPEED™ PAYBACK

4 сезон

9 сезон

Бесстыжие 9 сезон

Все сериалы

все сериалы на PB.wtf

RePack

FAR CRY 5
  

Темный город / Город тьмы / Dark City (Алекс Пройас) [Director's cut] [1998, фантастика, детектив, BDRip 1080p] 2xMVO (Rus / Ukr) + AVO pb.wtf

Темный город через торрент pb.wtf

Размер: 8.27 GB | Добавлен: 5 лет 2 мес. назад | Торрент скачан:100 раз
Скачать  

04-08-2015 18:24 Темный город Скачать торрент  

Темный город / Город тьмы / Dark City«Ты не тот, кто ты думаешь»

  • Год выхода: 1998
  • Жанр: фантастика, детектив

  • Страна: Австралия, США
  • Продолжительность: 01:51:43
  • Перевод: Профессиональный (многоголосый); Авторский (одноголосый)
  • Cубтитры: русские (Full - Киномания), русские (Full), английские (Full), английские (Full SDH)
  • Режиссер: Алекс Пройас
  • В ролях:

    Руфус Сьюэлл (John Murdoch), Уильям Хёрт (Inspector Frank Bumstead), Кифер Сазерленд (Dr. Daniel P. Schreber), Дженнифер Коннелли (Emma Murdoch), Ричард О’Брайэн (Mr. Hand), Иэн Ричардсон (Mr. Book), Брюс Спенс (Mr. Wall), Колин Фрилз (Walenski), Джон Блузал (Karl Harris), Митчелл Бутел (Husselbeck), Мелисса Джордж (May), Фрэнк Галлахер (Stromboli)
  • Описание:

    Убийцу, не помнящего своего имени и прошлого, преследует полицейский инспектор Фрэнк Бастед. Его ищет жена Эмма, за ним охотятся чужаки, а он по обрывкам воспоминаний пытается разобраться в том, что происходит.

  • Качество: BDRip 1080p (by -DaRkY-)
  • Формат: MKV
  • Видео кодек: AVC
  • Аудио кодек: AC3
  • Видео: AVC, 1920x812 (2.35:1), 8221 kbps, 23,976 fps, 0,220 bpp
  • Аудио №1: русский / AC3 / 5.1 / 48 kHz / 640 kbps / 16 bit |MVO, Киномания|
  • Аудио №2: русский / AC3 / 5.1 / 48 kHz / 640 kbps / 16 bit |AVO, Ю. Сербин|
  • Аудио №3: украинский / AC3 / 5.1 / 48 kHz / 448 kbps / 16 bit |МVO, ICTV| Примечание: отсутствует около 10 мин. перевода, т.к. дорожка переделана из театральной версии.
  • Аудио №4: английский / AC3 / 5.1 / 48 kHz / 640 kbps / 16 bit
  • Навигация по главам: есть

    Код:

    General
    Unique ID                                : 249306225996171066168772936574993438203 (0xBB8EA1F1DD7C55AC86F82BB8EC4415FB)
    Complete name                            : H:\torrent\film\Dark City\Dark City.Directors Cut.1998.BDRip.1080p.mkv
    Format                                   : Matroska
    Format version                           : Version 4 / Version 2
    File size                                : 8.27 GiB
    Duration                                 : 1h 51mn
    Overall bit rate                         : 10.6 Mbps
    Movie name                               : Dark City (1998) [Directors Cut]  BDRip 1080p
    Encoded date                             : UTC 2015-08-04 17:53:16
    Writing application                      : mkvmerge v7.9.0 ('Birds') 64bit
    Writing library                          : libebml v1.3.1 + libmatroska v1.4.2
    Attachment                               : Yes

    Video
    ID                                       : 1
    Format                                   : AVC
    Format/Info                              : Advanced Video Codec
    Format profile                           : High@L4.1
    Format settings, CABAC                   : Yes
    Format settings, ReFrames                : 5 frames
    Codec ID                                 : V_MPEG4/ISO/AVC
    Duration                                 : 1h 51mn
    Bit rate                                 : 8 221 Kbps
    Width                                    : 1 920 pixels
    Height                                   : 812 pixels
    Display aspect ratio                     : 2.35:1
    Frame rate                               : 23.976 fps
    Color space                              : YUV
    Chroma subsampling                       : 4:2:0
    Bit depth                                : 8 bits
    Scan type                                : Progressive
    Bits/(Pixel*Frame)                       : 0.220
    Stream size                              : 6.25 GiB (76%)
    Writing library                          : x264 core 65 r1057M 5f8a149
    Encoding settings                        : cabac=1 / ref=5 / deblock=1:-3:-3 / analyse=0x3:0x113 / me=umh / subme=9 / psy_rd=1.0:0.0 / mixed_ref=1 / me_range=32 / chroma_me=1 / trellis=0 / 8x8dct=1 / cqm=2 / deadzone=6,4 / chroma_qp_offset=-2 / threads=6 / nr=0 / decimate=1 / mbaff=0 / bframes=3 / b_pyramid=1 / b_adapt=2 / b_bias=0 / direct=3 / wpredb=1 / keyint=240 / keyint_min=24 / scenecut=40(pre) / rc=2pass / bitrate=8221 / ratetol=1.0 / qcomp=0.60 / qpmin=10 / qpmax=51 / qpstep=4 / cplxblur=20.0 / qblur=0.5 / ip_ratio=1.40 / pb_ratio=1.30 / aq=1:1.00
    Language                                 : English
    Default                                  : Yes
    Forced                                   : No

    Audio #1
    ID                                       : 2
    Format                                   : AC-3
    Format/Info                              : Audio Coding 3
    Mode extension                           : CM (complete main)
    Codec ID                                 : A_AC3
    Duration                                 : 1h 51mn
    Bit rate mode                            : Constant
    Bit rate                                 : 640 Kbps
    Channel(s)                               : 6 channels
    Channel positions                        : Front: L C R, Side: L R, LFE
    Sampling rate                            : 48.0 KHz
    Bit depth                                : 16 bits
    Compression mode                         : Lossy
    Stream size                              : 511 MiB (6%)
    Title                                    : MVO - Киномания
    Language                                 : Russian
    Default                                  : Yes
    Forced                                   : No

    Audio #2
    ID                                       : 3
    Format                                   : AC-3
    Format/Info                              : Audio Coding 3
    Mode extension                           : CM (complete main)
    Codec ID                                 : A_AC3
    Duration                                 : 1h 51mn
    Bit rate mode                            : Constant
    Bit rate                                 : 640 Kbps
    Channel(s)                               : 6 channels
    Channel positions                        : Front: L C R, Side: L R, LFE
    Sampling rate                            : 48.0 KHz
    Bit depth                                : 16 bits
    Compression mode                         : Lossy
    Stream size                              : 511 MiB (6%)
    Title                                    : AVO - Ю. Сербин
    Language                                 : Russian
    Default                                  : No
    Forced                                   : No

    Audio #3
    ID                                       : 4
    Format                                   : AC-3
    Format/Info                              : Audio Coding 3
    Mode extension                           : CM (complete main)
    Codec ID                                 : A_AC3
    Duration                                 : 1h 51mn
    Bit rate mode                            : Constant
    Bit rate                                 : 448 Kbps
    Channel(s)                               : 6 channels
    Channel positions                        : Front: L C R, Side: L R, LFE
    Sampling rate                            : 48.0 KHz
    Bit depth                                : 16 bits
    Compression mode                         : Lossy
    Stream size                              : 358 MiB (4%)
    Title                                    : MVO - ICTV
    Language                                 : Ukrainian
    Default                                  : No
    Forced                                   : No

    Audio #4
    ID                                       : 5
    Format                                   : AC-3
    Format/Info                              : Audio Coding 3
    Mode extension                           : CM (complete main)
    Codec ID                                 : A_AC3
    Duration                                 : 1h 51mn
    Bit rate mode                            : Constant
    Bit rate                                 : 640 Kbps
    Channel(s)                               : 6 channels
    Channel positions                        : Front: L C R, Side: L R, LFE
    Sampling rate                            : 48.0 KHz
    Bit depth                                : 16 bits
    Compression mode                         : Lossy
    Stream size                              : 511 MiB (6%)
    Title                                    : Оригинал
    Language                                 : English
    Default                                  : No
    Forced                                   : No

    Text #1
    ID                                       : 6
    Format                                   : UTF-8
    Codec ID                                 : S_TEXT/UTF8
    Codec ID/Info                            : UTF-8 Plain Text
    Title                                    : Full - Киномания
    Language                                 : Russian
    Default                                  : No
    Forced                                   : No

    Text #2
    ID                                       : 7
    Format                                   : UTF-8
    Codec ID                                 : S_TEXT/UTF8
    Codec ID/Info                            : UTF-8 Plain Text
    Title                                    : Full
    Language                                 : Russian
    Default                                  : No
    Forced                                   : No

    Text #3
    ID                                       : 8
    Format                                   : UTF-8
    Codec ID                                 : S_TEXT/UTF8
    Codec ID/Info                            : UTF-8 Plain Text
    Title                                    : Full
    Language                                 : English
    Default                                  : No
    Forced                                   : No

    Text #4
    ID                                       : 9
    Format                                   : UTF-8
    Codec ID                                 : S_TEXT/UTF8
    Codec ID/Info                            : UTF-8 Plain Text
    Title                                    : Full SDH
    Language                                 : English
    Default                                  : No
    Forced                                   : No

    Menu
    00:00:00.000                             : en:The Stranger
    00:02:00.077                             : en:John Murdoch
    00:07:20.021                             : en:Dr. Schreber's Office
    00:12:09.519                             : en:Automat
    00:19:22.286                             : en:He Can Tune!
    00:23:00.751                             : en:Who Am I?
    00:27:40.864                             : en:Thinking in Circles
    00:34:35.447                             : en:Tuning Begins
    00:48:26.652                             : en:Imprinted Memories
    00:57:14.179                             : en:Search for Murdoch
    01:05:31.677                             : en:Tuning Time Again
    01:11:08.720                             : en:Do You Remember?
    01:16:27.872                             : en:"Sleep"
    01:19:31.265                             : en:Dark Secrets
    01:29:16.809                             : en:Final Imprint
    01:40:04.497                             : en:To Shell Beach
    01:45:08.301                             : en:End Credits
    01:51:43.488                             : en:The End

    Скриншоты:


    © Оформление by -Lexx- pb.wtf



  • Скачать Темный город через торрент http://i003.radikal.ru/1508/e3/c909be91c316.png Скачать фильм Темный город через торрент бесплантно в хорошем качестве Описание: Убийцу, не помнящего своего имени и прошлого, преследует полицейский инспектор Фрэнк Бастед. Его ищет жена Эмма, за ним охотятся ... 9.9 10 13
    Info! Золотая раздача, скачанное не засчитывается.
    Торрент: Зарегистрирован [2015-08-04 18:24] · скачан: 100 раз
    Статус: √ проверено
    Размер: 8.27 GB
    Как cкачать? Как скачать Темный город через торрент | qTorrent



    Последний раз редактировалось: -Lexx- (2015-08-04 19:15), всего редактировалось 1 раз

    28-11-2019 20:33  

    Отключить всю рекламу на сайте

    04-08-2015 18:45 Темный город Скачать торрент  

    спс, отличный фильмец!pb.wtf
    K-Lexx- писал(а):

    Приятного просмотра.



    14-08-2015 21:11 Темный город Скачать торрент  

    Фильм потрясающий!! Всем советую кто не смотрел. Сюжет захватывает до самого конца фильма.pb.wtf



      Дорогой пользователь! Огромная просьба, поблагодарите релизера, оцените раздачу и оставьте свои комментарий, если Вы скачали Темный город через торрент бесплатно! Внесите свою лепту в развитие PiratBit!
      Комментировать посты могут только пользователи прошедшие не сложную регистрацию
      Показать сообщения:    

      Темный город через торрент
      Скачать бесплатно Темный город
      Темный город скачать торрент
      Темный город смотреть онлайн
      Cкачать фильм Темный город бесплатно
      Темный город скачать торрент в хорошем качестве
      Темный город смотреть онлайн бесплатно в хорошем качестве


      Вы не можете начинать темы
      Вы не можете отвечать на сообщения
      Вы не можете редактировать свои сообщения
      Вы не можете удалять свои сообщения
      Вы не можете голосовать в опросах
      Вы не можете прикреплять файлы к сообщениям
      Вы можете скачивать файлы