Ссылка на приватное зеркало всего за 1$. Внимание количество ограничено!!!

iTunes

1+1

iTunes

мы

WEB-DL

1

iTunes

Чернобыль

iTunes

Ральф против интернета

Лицензия

ПШазам

Лицензия

Оно 2

Лицензия

30
pack

Вам бонус

ВАЖНО

!!Акция!!

Alien_RageХит недели

RePack

Resident Evil 21

ИГРА 18+

pack

RePack

jed

!!Акция!!

Alien_Rage

RePack

fifa19

RePack

Assassins Creed: Odyssey

RePack

NEED FOR SPEED™ PAYBACK

3 сезон

9 сезон

Бесстыжие 9 сезон

Все сериалы

все сериалы на PB.wtf

RePack

FAR CRY 5
Ребята, катастрофически не хватает 1900р. для оплаты серверов за Октябрь (всвязи с блокировками трафик упал в 3 раза), 1-2р., выручайте.
  

Кето и Котэ (Вахтанг Таблиашвили, Шалва Гедеванишвили) [1948, СССР, мелодрама, комедия, музыка, DVDRip от AVP Studio] pb.wtf

Кето и Котэ через торрент pb.wtf

Размер: 1.09 GB | Добавлен: 4 года 4 мес. назад | Торрент скачан:3 раза
Скачать  

04-08-2015 21:47 Кето и Котэ Скачать торрент  

Кето и Котэ
Страна: СССР
Производство: Тбилисская киностудия

Жанр: мелодрама, комедия, музыка
Год выпуска: 1948
Продолжительность: 01:24:56

Перевод: Не требуется
Cубтитры: нет
Оригинальная аудиодорожка: русский

Режиссер: Вахтанг Таблиашвили, Шалва Гедеванишвили

В ролях:
Медея Джапаридзе, Бату Кравеишвили, Петре Амиранишвили, Шалва Гамбашидзе, Тамара Чавчавадзе, Мери Давиташвили, Васо Годзиашвили, Георгий Шавгулидзе, Елизавета Черкезишвили, Тамара Цицишвили, Александр Жоржолиани, Акакий Кванталиани, Верико Анджапаридзе, Сесилия Такаишвили, Цецилия Цуцунава, Зура Лежава, Георгий Геловани...
Полный список актёров

Описание:
По мотивам классической грузинской пьесы Авксентия Цагарели "Ханума". Богатый тифлисский купец мечтает породниться с аристократией и собирается для этого выдать свою дочь за старого разорившегося князя. Девушка в отчаянии - она любит молодого поэта, племянника князя. С помощью друзей и свахи Ханумы молодым влюбленным удается перехитрить стариков и добиться своего счастья...

Источник: DVD5 R5
Качество видео: DVDRip
Формат видео: AVI
Видео кодек: XviD
Аудио кодек: AC3
Видео: 688x512 (4:3), 25 fps, XviD ~ 1635 kbps avg, 0.186 bit/pixel
Аудио: 48 kHz, Dolby Digital AC3 2.0, 192 kbps

Раздача от:
Общее
Полное имя : E:\Tracker\2015\Кето и Котэ\Keto.i.Kote.1948.DVDRip_[New-team]_by_AVP_Studio.avi
Формат : AVI
Формат/Информация : Audio Video Interleave
Размер файла : 1,09 Гбайт
Продолжительность : 1 ч. 24 м.
Общий поток : 1837 Кбит/сек
Программа кодирования : VirtualDubMod 1.5.10.3 | www.virtualdub-fr.org || (build 2550/release)
Библиотека кодирования : VirtualDubMod build 2550/release

Видео
Идентификатор : 0
Формат : MPEG-4 Visual
Профиль формата : Advanced Simple@L5
Параметр BVOP формата : 1
Параметр QPel формата : Нет
Параметр GMC формата : Без точки перехода
Параметр матрицы формата : Выборочная
Идентификатор кодека : XVID
Идентификатор кодека/Подсказка : XviD
Продолжительность : 1 ч. 24 м.
Битрейт : 1635 Кбит/сек
Ширина : 688 пикселей
Высота : 512 пикселей
Соотношение сторон : 4:3
Частота кадров : 25,000 кадров/сек
Цветовое пространство : YUV
Субдискретизация насыщенности : 4:2:0
Битовая глубина : 8 бит
Тип развёртки : Прогрессивная
Метод сжатия : С потерями
Бит/(Пиксели*Кадры) : 0.186
Размер потока : 993 Мбайт (89%)
Библиотека кодирования : XviD 73

Аудио
Идентификатор : 1
Формат : AC-3
Формат/Информация : Audio Coding 3
Расширение режима : CM (complete main)
Параметр Endianness формата : Big
Идентификатор кодека : 2000
Продолжительность : 1 ч. 24 м.
Вид битрейта : Постоянный
Битрейт : 192 Кбит/сек
Каналы : 2 канала
Расположение каналов : Front: L R
Частота : 48,0 КГц
Метод сжатия : С потерями
Размер потока : 117 Мбайт (10%)
Выравнивание : Разделение по промежуткам
Продолжительность промежутка : 40 мс. (1,00 видеокадр)
Время предзагрузки промежутка : 500 мс
pb.wtf



Скачать Кето и Котэ через торрент http://s017.radikal.ru/i406/1508/14/2e47c6911332.png Скачать фильм Кето и Котэ через торрент бесплантно в хорошем качестве Описание:По мотивам классической грузинской пьесы Авксентия Цагарели "Ханума". Богатый тифлисский купец мечтает породниться с аристократией ... 10 10 1
Торрент: Зарегистрирован [2015-08-04 21:47] · скачан: 3 раз
Статус: √ проверено
Размер: 1.09 GB
Как cкачать? Как скачать Кето и Котэ через торрент | qTorrent

% Раздел Тема Автор DL S | L
Кино СССР [ 1.09 GB ] Кето и Котэ [1948 СССР музыка DVDRip-AVC от AVP Studio] AVP Studio Скачать
1 | 0
Кино СССР [ 745 MB ] Кето и Котэ [1948 СССР музыка DVDRip от AVP Studio] AVP Studio Скачать
1 | 0

28-11-2019 20:33  

Отключить всю рекламу на сайте

    Дорогой пользователь! Огромная просьба, поблагодарите релизера, оцените раздачу и оставьте свои комментарий, если Вы скачали Кето и Котэ через торрент бесплатно! Внесите свою лепту в развитие PiratBit!
    Комментировать посты могут только пользователи прошедшие не сложную регистрацию
    Показать сообщения:    

    Кето и Котэ через торрент
    Скачать бесплатно Кето и Котэ
    Кето и Котэ скачать торрент
    Кето и Котэ смотреть онлайн
    Cкачать фильм Кето и Котэ бесплатно
    Кето и Котэ скачать торрент в хорошем качестве
    Кето и Котэ смотреть онлайн бесплатно в хорошем качестве


    Вы не можете начинать темы
    Вы не можете отвечать на сообщения
    Вы не можете редактировать свои сообщения
    Вы не можете удалять свои сообщения
    Вы не можете голосовать в опросах
    Вы не можете прикреплять файлы к сообщениям
    Вы можете скачивать файлы