1 сезон

1 сезон

iTunes

1

КиноПоиск HD

Кинопоиск HD

iTunes

13

1 сезон

RePack

30

Новинка

ВАЖНО

ИГРА 18+

pack

RePack

MK11
pack

Легкие деньги

RePack

jed

RePack

fifa19

RePack

RDR2

RePack

NEED FOR SPEED™ PAYBACK

4 сезон

9 сезон

Бесстыжие 9 сезон

Все сериалы

все сериалы на PB.wtf

RePack

FAR CRY 5
  
Magnet ссылка

Голливудские копы / Hollywood Homicide (Рон Шелтон / Ron Shelton) [2003 г., боевик, комедия, криминал, DVDRip-AVC] DUB + MVO + Sub rus + original eng pb.wtf

Голливудские копы через торрент pb.wtf

Размер: 2.15 GB | Добавлен: 9 лет 7 мес. назад | Торрент скачан:35 раз
Скачать  

29-08-2011 17:55 Голливудские копы Скачать торрент  

Голливудские копы / Hollywood Homicide

Год выпуска: 2003
Страна: США
Жанр: боевик, комедия, криминал
Продолжительность: 01:51:15
Перевод: Профессиональный (полное дублирование)

Режиссер: Рон Шелтон / Ron Shelton

В ролях: Харрисон Форд /Harrison Ford/, Джош Хартнетт /Josh Hartnett/, Лина Олин /Lena Olin/, Брюс Гринвуд /Bruce Greenwood/, Айзейя Вашингтон /Isaiah Washington/, Лолита Давидович /Lolita Davidovich/

Описание: Ветеран лос-анджелесской полиции Джо Гэвилан и его молодой напарник Кейси Колден расследуют загадочное убийство популярной рэп группы. По одной из версий за убийством стоит Сэртэйн, известный менеджер, промоутер и владелец влиятельного лейбла. Он уже давно подозревается в причастности к гибели нескольких рэперов, желавших расторгнуть с ним контракты.
Но все время на пути расследований вставал начальник службы охраны медиа магната, бывший шеф полиции Лос-Анджелеса. И лишь в этот раз ничто не остановит напарников в поисках преступников, ведь до этого у них на счету было уже несколько провальных дел…
...а главное - героям кроме расследований надо заниматься и зарабатыванием денег - риэлтерством и преподаванием йоги )

Качество: DVDRip-AVC (Исх. DVD9)
Формат: MKV
Видео кодек: AVC
Аудио кодек: AC3
Видео: 720x432@1024x432 (2.35:1), 25.000 fps, AVC, ~1424 kbps, 0.183 bits/pixel
Аудио: 48 kHz, AC3 Dolby Digital, 3/2 (L,C,R,l,r) + LFE ch, ~448 kbps DUB
Аудио: 48 kHz, AC3 Dolby Digital, 3/2 (L,C,R,l,r) + LFE ch, ~448 kbps MVO- отдельно
Аудио: 48 kHz, AC3 Dolby Digital, 3/2 (L,C,R,l,r) + LFE ch, ~448 kbps ENG- отдельно
Формат субтитров: softsub (SRT)
Complete name Golliwudskie kopi.chopper887\Golliwudskie kopi.chopper887.mkv
Format : Matroska
File size : 1.46 GiB
Duration : 1h 51mn
Overall bit rate : 1 873 Kbps
Movie name : Golliwudskie kopi.chopper887
Encoded date : UTC 2011-04-09 14:07:17
Writing application : mkvmerge v4.4.0 ('Die Wiederkehr') built on Nov 7 2010 22:17:07
Writing library : libebml v1.0.0 + libmatroska v1.0.0

Video
ID : 1
Format : AVC
Format/Info : Advanced Video Codec
Format profile : High@L3.1
Format settings, CABAC : Yes
Format settings, ReFrames : 10 frames
Muxing mode : Header stripping
Codec ID : V_MPEG4/ISO/AVC
Duration : 1h 51mn
Bit rate : 1 424 Kbps
Width : 720 pixels
Height : 432 pixels
Display aspect ratio : 2.35:1
Original display aspect ratio : 1.667
Frame rate : 25.000 fps
Color space : YUV
Chroma subsampling : 4:2:0
Bit depth : 8 bits
Scan type : Progressive
Bits/(Pixel*Frame) : 0.183
Stream size : 1.08 GiB (74%)
Title : Golliwudskie kopi.chopper887
Writing library : x264 core 114 r1913 5fd3dce
Encoding settings : cabac=1 / ref=10 / deblock=1:-2:-1 / analyse=0x3:0x133 / me=umh / subme=9 / psy=1 / psy_rd=1.00:0.12 / mixed_ref=1 / me_range=32 / chroma_me=0 / trellis=2 / 8x8dct=1 / cqm=0 / deadzone=21,11 / fast_pskip=0 / chroma_qp_offset=-3 / threads=3 / sliced_threads=0 / nr=0 / decimate=1 / interlaced=0 / constrained_intra=0 / bframes=9 / b_pyramid=2 / b_adapt=2 / b_bias=0 / direct=3 / weightb=1 / open_gop=0 / weightp=2 / keyint=250 / keyint_min=25 / scenecut=40 / intra_refresh=0 / rc_lookahead=80 / rc=2pass / mbtree=1 / bitrate=1424 / ratetol=1.0 / qcomp=0.70 / qpmin=10 / qpmax=51 / qpstep=4 / cplxblur=20.0 / qblur=0.5 / ip_ratio=1.40 / aq=1:1.00
Language : English

Audio
ID : 2
Format : AC-3
Format/Info : Audio Coding 3
Mode extension : CM (complete main)
Muxing mode : Header stripping
Codec ID : A_AC3
Duration : 1h 51mn
Bit rate mode : Constant
Bit rate : 448 Kbps
Channel(s) : 6 channels
Channel positions : Front: L C R, Side: L R, LFE
Sampling rate : 48.0 KHz
Bit depth : 16 bits
Compression mode : Lossy
Stream size : 356 MiB (24%)
Title : Дубляж

Text
ID : 3
Format : UTF-8
Codec ID : S_TEXT/UTF8
Codec ID/Info : UTF-8 Plain Text
Title : Русские



pb.wtf



Скачать Голливудские копы через торрент http://i1.imageban.ru/out/2011/08/29/31319a08d413ceb0894e90983fd54d76.jpg Скачать фильм Голливудские копы через торрент бесплантно в хорошем качестве Описание: Ветеран лос-анджелесской полиции Джо Гэвилан и его молодой напарник Кейси Колден расследуют загадочное убийство популярной рэп ... 10 10 1
Info! Золотая раздача, скачанное не засчитывается.
Торрент: Зарегистрирован [2011-08-29 17:55] · скачан: 35 раз
Статус: √ проверено
Размер: 2.15 GB
Как cкачать? Как скачать Голливудские копы через торрент | UTorrent

28-11-2019 20:33  

Отключить всю рекламу на сайте

30-08-2011 07:35 Голливудские копы Скачать торрент  

а где скрин?pb.wtf



    Дорогой пользователь! Огромная просьба, поблагодарите релизера, оцените раздачу и оставьте свои комментарий, если Вы скачали Голливудские копы через торрент бесплатно! Внесите свою лепту в развитие PiratBit!
    Комментировать посты могут только пользователи прошедшие не сложную регистрацию
    Показать сообщения:    

    Голливудские копы через торрент
    Скачать бесплатно Голливудские копы
    Голливудские копы скачать торрент
    Голливудские копы смотреть онлайн
    Cкачать фильм Голливудские копы бесплатно
    Голливудские копы скачать торрент в хорошем качестве
    Голливудские копы смотреть онлайн бесплатно в хорошем качестве


    Вы не можете начинать темы
    Вы не можете отвечать на сообщения
    Вы не можете редактировать свои сообщения
    Вы не можете удалять свои сообщения
    Вы не можете голосовать в опросах
    Вы не можете прикреплять файлы к сообщениям
    Вы можете скачивать файлы