новый адрес
Ссылка на приватное зеркало всего за 1$. Внимание количество ограничено!!!

iTunes

1+1

iTunes

мы

iTunes

1

iTunes

Чернобыль

iTunes

Ральф против интернета

Лицензия

ПШазам

Лицензия

Оно 2

Лицензия

30
pack

Вам бонус

ВАЖНО

!!Акция!!

Alien_RageХит недели

RePack

Resident Evil 21

ИГРА 18+

pack

RePack

jed

!!Акция!!

Alien_Rage

RePack

fifa19

RePack

Assassins Creed: Odyssey

RePack

NEED FOR SPEED™ PAYBACK

3 сезон

9 сезон

Бесстыжие 9 сезон

Все сериалы

все сериалы на PB.wtf

RePack

FAR CRY 5
Ребята, катастрофически не хватает 1900р. для оплаты серверов за Октябрь (всвязи с блокировками трафик упал в 3 раза), 1-2р., выручайте.
  

Побег из Шоушенка / The Shawshank Redemption (Фрэнк Дарабонт / Frank Darabont) [1994, драма, криминал, BDRip 1080p ] MVO + DVO + AVO + Original pb.wtf

Побег из Шоушенка через торрент pb.wtf

Размер: 29.31 GB | Добавлен: 4 года 3 мес. назад | Торрент скачан:32 раза
Скачать  

05-08-2015 12:07 Побег из Шоушенка Скачать торрент  

Побег из Шоушенка / The Shawshank Redemption
«Страх - это кандалы. Надежда - это свобода»
Год выпуска: 1994
Страна: США / Castle Rock Entertainment
Жанр: криминальная драма
Продолжительность: 02:22:33
Перевод: профессиональный (многоголосый закадровый), профессиональный (двухголосый закадровый), авторский (одноголосый закадровый)

Режиссер: Фрэнк Дарабонт
Продюссер: Ники Марвин, Лиз Глоцер, Дэвид В. Лестер



В ролях: Тим Роббинс, Морган Фриман, Боб Гантон, Уильям Сэдлер, Клэнси Браун, Джил Беллоуз, Марк Ролстон, Джеймс Уитмор, Джеффри ДеМанн, Ларри Бранденбург

Описание: По рассказу Стивена Кинга "Рита Хэйворт и искупление в тюрьме Шоушенк".
Энди Дюфрейн, вице-президент солидного банка, приговаривается к двум пожизненным заключениям по обвинению в убийстве жены и ее любовника. Он отбывает заключение в тюрьме Шоушенк, где проходит все круги ада, проявляя недюжинное мужество, упорство и хладнокровие. Повествование идет от лица темнокожего зэка по имени Ред, с которым Энди крепко сдружился. Благодаря своему мощному интеллекту и финансовым талантам экс-банкир становится неофициальным помощником тюремного начальства, что дает ему возможность пользоваться определенными поблажками и привилегиями. Но самый большой сюрприз новоявленный граф Монте-Кристо уготовил под финал...

Кинопоиск Top 250: # 1; IMDb Charts Top 250: # 1
Рейтинг MPAA: R - Детям до 17 лет обязательно присутствие родителей

Качество: BDRip (1080p) (SbR) (GER Transfer)
Формат: mkv
Видео кодек: AVC
Аудио кодек: АС3, DTS
Видео: MPEG-4 AVC/H.264, 1920x1080 (16:9), 16 500 kbps, 23.976 fps, 0.333 b/px
Аудио # 1: АС3, 6 ch, 384 kbps, 48 000 Hz - MVO - «Videogram»
Аудио # 2: DTS, 6 ch, 1510 kbps, 48 000 Hz - MVO - «Киномания»
Аудио # 3: DTS, 6 ch, 1509 kbps, 48 000 Hz - MVO - Blu-Ray «СОЮЗ Видео»
Аудио # 4: АС3, 2 ch, 256 kbps, 48 000 Hz - MVO - «РТР (ТВЦ)»
Аудио # 5: АС3, 6 ch, 384 kbps, 48 000 Hz - MVO - «LDV»
Аудио # 6: АС3, 2 ch, 192 kbps, 48 000 Hz - MVO - «ОРТ»
Аудио # 7: АС3, 2 ch, 192 kbps, 48 000 Hz - MVO - «СТС»
Аудио # 8: DTS, 6 ch, 1510 kbps, 48 000 Hz - DVO - «Видеофильм»
Аудио # 9: DTS, 6 ch, 755 kbps, 48 000 Hz - AVO - А.Гаврилов
Аудио # 10: DTS, 6 ch, 755 kbps, 48 000 Hz - AVO - В.Горчаков
Аудио # 11: DTS, 6 ch, 1510 kbps, 48 000 Hz - AVO - Ю.Живов
Аудио # 12: АС3, 6 ch, 448 kbps, 48 000 Hz - AVO - Ю.Сербин (ранний)
Аудио # 13: АС3, 6 ch, 448 kbps, 48 000 Hz - AVO - Ю.Сербин (поздний)
Аудио # 14: АС3, 2 ch, 256 kbps, 48 000 Hz - AVO - А.Алексеев
Аудио # 15: АС3, 2 ch, 256 kbps, 48 000 Hz - AVO - С.Визгунов
Аудио # 16: АС3, 2 ch, 256 kbps, 48 000 Hz - MVO - Украинский
Аудио # 17: DTS, 6 ch, 1509 kbps, 48 000 Hz - Original - English
Аудио # 18: АС3, 2 ch, 192 kbps, 48 000 Hz - Commentary by Frank Darabont - English
Субтитры: русский, английский
Вид субтитров: вшитые, отключаемые

Код:

Общее
Уникальный идентификатор                 : 240139660561757662159558662399574776538 (0xB4A9376029D6D84BBD9D894139E19ADA)
Полное имя                               : F:\[1994] Побег из Шоушенка [BDRip] [1080p].mkv
Формат                                   : Matroska
Версия формата                           : Version 4 / Version 2
Размер файла                             : 29,3 Гбайт
Продолжительность                        : 2 ч. 22 м.
Общий поток                              : 29,4 Мбит/сек
Название фильма                          : Побег из Шоушенка / The Shawshank Redemption (1994) BDRip [1080p]
Дата кодирования                         : UTC 2015-07-22 09:31:20
Программа кодирования                    : mkvmerge v7.8.0 ('River Man') 32bit built on Mar 27 2015 16:18:02
Библиотека кодирования                   : libebml v1.3.1 + libmatroska v1.4.2
DURATION                                 : 02:17:27.613000000
NUMBER_OF_FRAMES                         : 1880
NUMBER_OF_BYTES                          : 63155
_STATISTICS_WRITING_APP                  : mkvmerge v7.8.0 ('River Man') 32bit built on Mar 27 2015 16:18:02
_STATISTICS_WRITING_DATE_UTC             : 2015-07-22 09:31:20
_STATISTICS_TAGS                         : BPS DURATION NUMBER_OF_FRAMES NUMBER_OF_BYTES

Видео
Идентификатор                            : 1
Формат                                   : AVC
Формат/Информация                        : Advanced Video Codec
Профиль формата                          : High@L4.1
Параметр CABAC формата                   : Да
Параметр ReFrames формата                : 4 кадра
Идентификатор кодека                     : V_MPEG4/ISO/AVC
Продолжительность                        : 2 ч. 22 м.
Битрейт                                  : 16,5 Мбит/сек
Ширина                                   : 1920 пикселей
Высота                                   : 1080 пикселей
Соотношение сторон                       : 16:9
Режим частоты кадров                     : Постоянный
Частота кадров                           : 23,976 кадра/сек
Цветовое пространство                    : YUV
Субдискретизация насыщенности            : 4:2:0
Битовая глубина                          : 8 бит
Тип развёртки                            : Прогрессивная
Бит/(Пиксели*Кадры)                      : 0.332
Размер потока                            : 16,5 Гбайт (56%)
Заголовок                                : [1994] Побег из Шоушенка / The Shawshank Redemption [BDRip] [1080p]
Библиотека кодирования                   : x264 core 146 r2538kMod 121396c
Настройки программы                      : cabac=1 / ref=4 / deblock=1:-2:-2 / analyse=0x3:0x133 / me=umh / subme=11 / psy=1 / fade_compensate=0.00 / psy_rd=1.00:0.00 / mixed_ref=1 / me_range=32 / chroma_me=1 / trellis=2 / 8x8dct=1 / cqm=0 / deadzone=21,11 / fast_pskip=1 / chroma_qp_offset=-2 / threads=12 / lookahead_threads=2 / sliced_threads=0 / nr=0 / decimate=1 / interlaced=0 / bluray_compat=0 / constrained_intra=0 / fgo=0 / bframes=8 / b_pyramid=2 / b_adapt=2 / b_bias=0 / direct=1 / weightb=1 / open_gop=0 / weightp=2 / keyint=250 / keyint_min=23 / scenecut=40 / intra_refresh=0 / rc_lookahead=60 / rc=crf / mbtree=0 / crf=16.0000 / qcomp=0.60 / qpmin=0 / qpmax=69 / qpstep=4 / vbv_maxrate=62500 / vbv_bufsize=78125 / crf_max=0.0 / nal_hrd=none / filler=0 / ip_ratio=1.40 / pb_ratio=1.30 / aq=1:0.80
Язык                                     : English
Default                                  : Да
Forced                                   : Нет
Цветовой диапазон                        : Limited
Основные цвета                           : BT.709
Характеристики трансфера                 : BT.709
Коэффициенты матрицы                     : BT.709

Аудио #1
Идентификатор                            : 2
Формат                                   : AC-3
Формат/Информация                        : Audio Coding 3
Расширение режима                        : CM (complete main)
Параметр Endianness формата              : Big
Идентификатор кодека                     : A_AC3
Продолжительность                        : 2 ч. 22 м.
Вид битрейта                             : Постоянный
Битрейт                                  : 384 Кбит/сек
Каналы                                   : 6 каналов
Расположение каналов                     : Front: L C R, Side: L R, LFE
Частота                                  : 48,0 КГц
Метод сжатия                             : С потерями
Размер потока                            : 392 Мбайт (1%)
Заголовок                                : MVO - «Videogram»
Язык                                     : Russian
Default                                  : Да
Forced                                   : Нет

Аудио #2
Идентификатор                            : 3
Формат                                   : DTS
Формат/Информация                        : Digital Theater Systems
Режим                                    : 16
Параметр Endianness формата              : Big
Идентификатор кодека                     : A_DTS
Продолжительность                        : 2 ч. 22 м.
Вид битрейта                             : Постоянный
Битрейт                                  : 1510 Кбит/сек
Каналы                                   : 6 каналов
Расположение каналов                     : Front: L C R, Side: L R, LFE
Частота                                  : 48,0 КГц
Битовая глубина                          : 24 бит
Метод сжатия                             : С потерями
Размер потока                            : 1,50 Гбайт (5%)
Заголовок                                : MVO - «Киномания»
Язык                                     : Russian
Default                                  : Нет
Forced                                   : Нет

Аудио #3
Идентификатор                            : 4
Формат                                   : DTS
Формат/Информация                        : Digital Theater Systems
Режим                                    : 16
Параметр Endianness формата              : Big
Идентификатор кодека                     : A_DTS
Продолжительность                        : 2 ч. 22 м.
Вид битрейта                             : Постоянный
Битрейт                                  : 1509 Кбит/сек
Каналы                                   : 6 каналов
Расположение каналов                     : Front: L C R, Side: L R, LFE
Частота                                  : 48,0 КГц
Битовая глубина                          : 24 бит
Метод сжатия                             : С потерями
Размер потока                            : 1,50 Гбайт (5%)
Заголовок                                : MVO - Blu-Ray «СОЮЗ Видео»
Язык                                     : Russian
Default                                  : Нет
Forced                                   : Нет

Аудио #4
Идентификатор                            : 5
Формат                                   : AC-3
Формат/Информация                        : Audio Coding 3
Расширение режима                        : CM (complete main)
Параметр Endianness формата              : Big
Идентификатор кодека                     : A_AC3
Продолжительность                        : 2 ч. 22 м.
Вид битрейта                             : Постоянный
Битрейт                                  : 256 Кбит/сек
Каналы                                   : 2 канала
Расположение каналов                     : Front: L R
Частота                                  : 48,0 КГц
Метод сжатия                             : С потерями
Размер потока                            : 261 Мбайт (1%)
Заголовок                                : MVO - «РТР (ТВЦ)»
Язык                                     : Russian
Default                                  : Нет
Forced                                   : Нет

Аудио #5
Идентификатор                            : 6
Формат                                   : AC-3
Формат/Информация                        : Audio Coding 3
Расширение режима                        : CM (complete main)
Параметр Endianness формата              : Big
Идентификатор кодека                     : A_AC3
Продолжительность                        : 2 ч. 22 м.
Вид битрейта                             : Постоянный
Битрейт                                  : 384 Кбит/сек
Каналы                                   : 6 каналов
Расположение каналов                     : Front: L C R, Side: L R, LFE
Частота                                  : 48,0 КГц
Метод сжатия                             : С потерями
Размер потока                            : 392 Мбайт (1%)
Заголовок                                : MVO - «LDV»
Язык                                     : Russian
Default                                  : Нет
Forced                                   : Нет

Аудио #6
Идентификатор                            : 7
Формат                                   : AC-3
Формат/Информация                        : Audio Coding 3
Расширение режима                        : CM (complete main)
Параметр Endianness формата              : Big
Идентификатор кодека                     : A_AC3
Продолжительность                        : 2 ч. 22 м.
Вид битрейта                             : Постоянный
Битрейт                                  : 192 Кбит/сек
Каналы                                   : 2 канала
Расположение каналов                     : Front: L R
Частота                                  : 48,0 КГц
Метод сжатия                             : С потерями
Размер потока                            : 196 Мбайт (1%)
Заголовок                                : MVO - «ОРТ»
Язык                                     : Russian
Default                                  : Нет
Forced                                   : Нет

Аудио #7
Идентификатор                            : 8
Формат                                   : AC-3
Формат/Информация                        : Audio Coding 3
Расширение режима                        : CM (complete main)
Параметр Endianness формата              : Big
Идентификатор кодека                     : A_AC3
Продолжительность                        : 2 ч. 22 м.
Вид битрейта                             : Постоянный
Битрейт                                  : 192 Кбит/сек
Каналы                                   : 2 канала
Расположение каналов                     : Front: L R
Частота                                  : 48,0 КГц
Метод сжатия                             : С потерями
Размер потока                            : 196 Мбайт (1%)
Заголовок                                : MVO - «СТС»
Язык                                     : Russian
Default                                  : Нет
Forced                                   : Нет

Аудио #8
Идентификатор                            : 9
Формат                                   : DTS
Формат/Информация                        : Digital Theater Systems
Режим                                    : 16
Параметр Endianness формата              : Big
Идентификатор кодека                     : A_DTS
Продолжительность                        : 2 ч. 22 м.
Вид битрейта                             : Постоянный
Битрейт                                  : 1510 Кбит/сек
Каналы                                   : 6 каналов
Расположение каналов                     : Front: L C R, Side: L R, LFE
Частота                                  : 48,0 КГц
Битовая глубина                          : 24 бит
Метод сжатия                             : С потерями
Размер потока                            : 1,50 Гбайт (5%)
Заголовок                                : DVO - «Видеофильм»
Язык                                     : Russian
Default                                  : Нет
Forced                                   : Нет

Аудио #9
Идентификатор                            : 10
Формат                                   : DTS
Формат/Информация                        : Digital Theater Systems
Режим                                    : 16
Параметр Endianness формата              : Big
Идентификатор кодека                     : A_DTS
Продолжительность                        : 2 ч. 22 м.
Вид битрейта                             : Постоянный
Битрейт                                  : 755 Кбит/сек
Каналы                                   : 6 каналов
Расположение каналов                     : Front: L C R, Side: L R, LFE
Частота                                  : 48,0 КГц
Битовая глубина                          : 24 бит
Метод сжатия                             : С потерями
Размер потока                            : 769 Мбайт (3%)
Заголовок                                : AVO - А.Гаврилов
Язык                                     : Russian
Default                                  : Нет
Forced                                   : Нет

Аудио #10
Идентификатор                            : 11
Формат                                   : DTS
Формат/Информация                        : Digital Theater Systems
Режим                                    : 16
Параметр Endianness формата              : Big
Идентификатор кодека                     : A_DTS
Продолжительность                        : 2 ч. 22 м.
Вид битрейта                             : Постоянный
Битрейт                                  : 755 Кбит/сек
Каналы                                   : 6 каналов
Расположение каналов                     : Front: L C R, Side: L R, LFE
Частота                                  : 48,0 КГц
Битовая глубина                          : 24 бит
Метод сжатия                             : С потерями
Размер потока                            : 769 Мбайт (3%)
Заголовок                                : AVO - В.Горчаков
Язык                                     : Russian
Default                                  : Нет
Forced                                   : Нет

Аудио #11
Идентификатор                            : 12
Формат                                   : DTS
Формат/Информация                        : Digital Theater Systems
Режим                                    : 16
Параметр Endianness формата              : Big
Идентификатор кодека                     : A_DTS
Продолжительность                        : 2 ч. 22 м.
Вид битрейта                             : Постоянный
Битрейт                                  : 1510 Кбит/сек
Каналы                                   : 6 каналов
Расположение каналов                     : Front: L C R, Side: L R, LFE
Частота                                  : 48,0 КГц
Битовая глубина                          : 24 бит
Метод сжатия                             : С потерями
Размер потока                            : 1,50 Гбайт (5%)
Заголовок                                : AVO - Ю.Живов
Язык                                     : Russian
Default                                  : Нет
Forced                                   : Нет

Аудио #12
Идентификатор                            : 13
Формат                                   : AC-3
Формат/Информация                        : Audio Coding 3
Расширение режима                        : CM (complete main)
Параметр Endianness формата              : Big
Идентификатор кодека                     : A_AC3
Продолжительность                        : 2 ч. 22 м.
Вид битрейта                             : Постоянный
Битрейт                                  : 448 Кбит/сек
Каналы                                   : 6 каналов
Расположение каналов                     : Front: L C R, Side: L R, LFE
Частота                                  : 48,0 КГц
Метод сжатия                             : С потерями
Размер потока                            : 457 Мбайт (2%)
Заголовок                                : AVO - Ю.Сербин (ранний)
Язык                                     : Russian
Default                                  : Нет
Forced                                   : Нет

Аудио #13
Идентификатор                            : 14
Формат                                   : AC-3
Формат/Информация                        : Audio Coding 3
Расширение режима                        : CM (complete main)
Параметр Endianness формата              : Big
Идентификатор кодека                     : A_AC3
Продолжительность                        : 2 ч. 22 м.
Вид битрейта                             : Постоянный
Битрейт                                  : 448 Кбит/сек
Каналы                                   : 6 каналов
Расположение каналов                     : Front: L C R, Side: L R, LFE
Частота                                  : 48,0 КГц
Метод сжатия                             : С потерями
Размер потока                            : 457 Мбайт (2%)
Заголовок                                : AVO - Ю.Сербин (поздний)
Язык                                     : Russian
Default                                  : Нет
Forced                                   : Нет

Аудио #14
Идентификатор                            : 15
Формат                                   : AC-3
Формат/Информация                        : Audio Coding 3
Расширение режима                        : CM (complete main)
Параметр Endianness формата              : Big
Идентификатор кодека                     : A_AC3
Продолжительность                        : 2 ч. 22 м.
Вид битрейта                             : Постоянный
Битрейт                                  : 256 Кбит/сек
Каналы                                   : 2 канала
Расположение каналов                     : Front: L R
Частота                                  : 44,1 КГц
Метод сжатия                             : С потерями
Размер потока                            : 261 Мбайт (1%)
Заголовок                                : AVO - А.Алексеев
Язык                                     : Russian
Default                                  : Нет
Forced                                   : Нет

Аудио #15
Идентификатор                            : 16
Формат                                   : AC-3
Формат/Информация                        : Audio Coding 3
Расширение режима                        : CM (complete main)
Параметр Endianness формата              : Big
Идентификатор кодека                     : A_AC3
Продолжительность                        : 2 ч. 22 м.
Вид битрейта                             : Постоянный
Битрейт                                  : 256 Кбит/сек
Каналы                                   : 2 канала
Расположение каналов                     : Front: L R
Частота                                  : 44,1 КГц
Метод сжатия                             : С потерями
Размер потока                            : 261 Мбайт (1%)
Заголовок                                : AVO - С.Визгунов
Язык                                     : Russian
Default                                  : Нет
Forced                                   : Нет

Аудио #16
Идентификатор                            : 17
Формат                                   : AC-3
Формат/Информация                        : Audio Coding 3
Расширение режима                        : CM (complete main)
Параметр Endianness формата              : Big
Идентификатор кодека                     : A_AC3
Продолжительность                        : 2 ч. 22 м.
Вид битрейта                             : Постоянный
Битрейт                                  : 256 Кбит/сек
Каналы                                   : 2 канала
Расположение каналов                     : Front: L R
Частота                                  : 48,0 КГц
Метод сжатия                             : С потерями
Размер потока                            : 261 Мбайт (1%)
Заголовок                                : MVO
Язык                                     : Ukrainian
Default                                  : Нет
Forced                                   : Нет

Аудио #17
Идентификатор                            : 18
Формат                                   : DTS
Формат/Информация                        : Digital Theater Systems
Режим                                    : 16
Параметр Endianness формата              : Big
Идентификатор кодека                     : A_DTS
Продолжительность                        : 2 ч. 22 м.
Вид битрейта                             : Постоянный
Битрейт                                  : 1509 Кбит/сек
Каналы                                   : 6 каналов
Расположение каналов                     : Front: L C R, Side: L R, LFE
Частота                                  : 48,0 КГц
Битовая глубина                          : 16 бит
Метод сжатия                             : С потерями
Размер потока                            : 1,50 Гбайт (5%)
Заголовок                                : Original
Язык                                     : English
Default                                  : Нет
Forced                                   : Нет

Аудио #18
Идентификатор                            : 19
Формат                                   : AC-3
Формат/Информация                        : Audio Coding 3
Профиль формата                          : Dolby Digital
Расширение режима                        : CM (complete main)
Параметр Endianness формата              : Big
Идентификатор кодека                     : A_AC3
Продолжительность                        : 2 ч. 22 м.
Вид битрейта                             : Постоянный
Битрейт                                  : 192 Кбит/сек
Каналы                                   : 2 канала
Расположение каналов                     : Front: L R
Частота                                  : 48,0 КГц
Метод сжатия                             : С потерями
Размер потока                            : 196 Мбайт (1%)
Заголовок                                : Commentary by Frank Darabont
Язык                                     : English
Default                                  : Нет
Forced                                   : Нет

Текст #1
Идентификатор                            : 20
Формат                                   : UTF-8
Идентификатор кодека                     : S_TEXT/UTF8
Идентификатор кодека/Информация          : UTF-8 Plain Text
Заголовок                                : Russian - «Киномания»
Язык                                     : Russian
Default                                  : Нет
Forced                                   : Нет

Текст #2
Идентификатор                            : 21
Формат                                   : UTF-8
Идентификатор кодека                     : S_TEXT/UTF8
Идентификатор кодека/Информация          : UTF-8 Plain Text
Заголовок                                : Russian - Blu-Ray «СОЮЗ Видео»
Язык                                     : Russian
Default                                  : Нет
Forced                                   : Нет

Текст #3
Идентификатор                            : 22
Формат                                   : UTF-8
Идентификатор кодека                     : S_TEXT/UTF8
Идентификатор кодека/Информация          : UTF-8 Plain Text
Заголовок                                : Russian - Sunny-Sko - ненормативная лексика
Язык                                     : Russian
Default                                  : Нет
Forced                                   : Нет

Текст #4
Идентификатор                            : 23
Формат                                   : UTF-8
Идентификатор кодека                     : S_TEXT/UTF8
Идентификатор кодека/Информация          : UTF-8 Plain Text
Заголовок                                : Russian - SDH
Язык                                     : Russian
Default                                  : Нет
Forced                                   : Нет

Текст #5
Идентификатор                            : 24
Формат                                   : UTF-8
Идентификатор кодека                     : S_TEXT/UTF8
Идентификатор кодека/Информация          : UTF-8 Plain Text
Заголовок                                : English
Язык                                     : English
Default                                  : Нет
Forced                                   : Нет

Текст #6
Идентификатор                            : 25
Формат                                   : UTF-8
Идентификатор кодека                     : S_TEXT/UTF8
Идентификатор кодека/Информация          : UTF-8 Plain Text
Заголовок                                : English - SDH
Язык                                     : English
Default                                  : Нет
Forced                                   : Нет

Текст #7
Идентификатор                            : 26
Формат                                   : UTF-8
Идентификатор кодека                     : S_TEXT/UTF8
Идентификатор кодека/Информация          : UTF-8 Plain Text
Заголовок                                : English - SDH
Язык                                     : English
Default                                  : Нет
Forced                                   : Нет

Меню
00:00:00.000                             : en:On Trial
00:04:39.967                             : en:Icy/remorseless
00:06:39.500                             : en:This guy who can get it
00:10:06.800                             : en:A stiff breeze and other arrivals
00:13:53.133                             : en:Fresh fish
00:17:58.967                             : en:Nameless
00:23:41.967                             : en:First request
00:28:59.467                             : en:Andy's routine
00:33:30.967                             : en:Beer on the roof
00:38:48.634                             : en:Just like everybody else
00:41:03.967                             : en:Second request
00:42:38.133                             : en:A pair of beatings
00:46:11.666                             : en:Welcome back
00:48:11.633                             : en:Cell toss
00:51:18.500                             : en:A cottage industry
00:57:15.800                             : en:Exactly what they take
01:00:23.966                             : en:Brooks was here
01:05:41.966                             : en:A shipment for Andy
01:07:12.666                             : en:Time out for Mozart
01:10:59.466                             : en:The danger of hope
01:13:48.833                             : en:Parole rejection present
01:15:51.133                             : en:Keeping the books
01:21:03.466                             : en:A crook in prison
01:23:53.966                             : en:Tommy Williams
01:29:20.966                             : en:Elmo Blatch
01:32:04.999                             : en:Solitary
01:35:31.466                             : en:Sniper's target
01:38:22.966                             : en:Catching Norton's drift
01:40:32.466                             : en:A certain hay field
01:47:16.799                             : en:The longest night
01:50:39.499                             : en:Vanished
01:54:24.299                             : en:Andy's way out
02:00:28.332                             : en:His judgement cometh
02:04:01.965                             : en:Not meant to be caged
02:05:43.465                             : en:Rehabilitated?
02:08:18.165                             : en:On the outside
02:10:05.798                             : en:Honoring a promise
02:12:48.298                             : en:"No good thing ever dies"
02:16:19.631                             : en:A free man's dreams
02:17:59.331                             : en:Dedication and End Credits


Бронзовый приз на операторском фестивале «Камеримаж» в 1995 году, премия Японской киноакадемии и приз «Кинема дзюнпо» за лучший иностранный фильм в Японии по итогам 1995 года.

Оскар, 1995 год
Номинации (7):
*** Лучший фильм
*** Лучшая мужская роль (Морган Фриман)
*** Лучший адаптированный сценарий
*** Лучшая работа оператора
*** Лучший звук
*** Лучший монтаж
*** Лучший оригинальный саундтрек
Золотой глобус, 1995 год
Номинации (2):
*** Лучшая мужская роль (драма) (Морган Фриман)
*** Лучший сценарий
Сатурн, 1995 год
Номинации (2):
*** Лучший сценарий
*** Лучший приключенческий фильм, боевик или триллер
Премия Гильдии актеров, 1995 год
Номинации (2):
*** Лучшая мужская роль (Тим Роббинс)
*** Лучшая мужская роль (Морган Фриман)
*** Фильм снят по мотивам повести Стивена Кинга «Рита Хейуорт и спасение из Шоушенка» (Rita Hayworth and Shawshank Redemption), опубликованной в составе сборника «Четыре сезона» (Different Seasons, 1982).
*** Номер камеры Реда — 237. Эти же цифры фигурируют в обеих экранизациях романа Стивена Кинга «Сияние» (кинофильм 1980 года и мини-сериал 1997 года) — там это номер комнаты отеля, в которой обитает призрак женщины. Также эти цифры появляются в фильме «Останься со мной» (1986), снятом по рассказу Стивена Кинга «Тело», — там это сумма мелочи, собранной четырьмя юными героями ($2,37).
*** Роб Райнер предполагал на роли Реда и Энди Дюфрейна соответственно Харрисона Форда и Тома Круза.
*** Съемки проходили в Мэнсфилдской исправительной колонии, что в штате Огайо. Тюрьма находилась в таком плачевном состоянии, что пришлось потратить немало бюджетных средств на приведение её в должный вид.
*** Стивен Кинг согласился продать права на свое произведение практически даром, т. к. с Фрэнком их связывает давняя крепкая дружба. Произошло это после того, как Фрэнк довольно успешно экранизировал рассказ Кинга «Женщина в палате». С тех пор они практически не виделись, но, тем не менее, вели активную переписку. Встреча произошла лишь после того, как Фрэнк проявил недюжий интерес к «Шоушенку».
*** Американское общество защиты животных выступило с критикой в адрес фильма, в котором единственным представителем фауны стал ворон старика Брукса. В картине есть сцена кормления птицы червяком, найденном во время обеда в тарелке главного героя фильма. Общество настояло на том, чтобы была использована уже мертвая личинка, погибшая своей естественной смертью. После того, как такая особь была найдена, сцену отсняли.
*** Роль Томми Уильямса изначально была написана под Брэда Питта.
*** Фильм посвящен бывшему агенту режиссера Фрэнка Дарабонта, в свое время оказавшему немалую помощь в восхождении Фрэнка по Голливудской лестнице.
*** Картина 1946 года с участием Риты Хэйворт, которую смотрели заключенные, носит название «Гильда».
*** Начальник тюрьмы Нортон насвистывает гимн «Eine feste Burg ist unser Gott», название которого переводится примерно так: «Могучая крепость и есть наш бог».
*** Фотографии молодого Моргана Фримана на документах на самом деле являются фотографиями его сына, Альфонсо Фримана. Кстати, Альфонсо можно заметить в одном из эпизодов картины.
*** Несмотря на то, что в кинотеатрах фильм не собрал больших денег, он стал одним из самых кассовых релизов на видео, а впоследствии и на DVD.
*** Фильм посвящён Аллену Грину (Allen Greene) — близкому другу режиссёра. Аллен Грин скончался от проблем, связанных со СПИДом, незадолго до выхода фильма в свет.
*** Бывший начальник Мэнсфилдской тюрьмы, где проходили натурные съёмки фильма, Дэннис Бэйкер — в роли пожилого заключённого, сидящего в тюремном автобусе позади Томми Уильямса.
*** Оригинальная повесть Стивена Кинга была, по словам самого писателя, кульминацией всех его впечатлений от различных тюремных фильмов, которые он смотрел в детстве.
*** Сценарий Фрэнка Дарабонта очень понравился другому режиссёру, успешно экранизировавшему произведения Стивена Кинга, — Робу Райнеру, постановщику ностальгической драмы «Останься со мной» (1986) и психологического триллера «Мизери» (1990). Райнер был так захвачен материалом, что предложил Дарабонту $2,5 млн за права на сценарий и постановку фильма. Дарабонт серьёзно обдумал предложение, но в конечном счёте решил, что для него этот проект — «шанс сделать что-то действительно великое», и поставил фильм сам.
*** Роль Энди Дюфрейна изначально предложили Тому Хэнксу. Он очень заинтересовался, но не смог принять предложение, из-за того что уже был занят в проекте «Форрест Гамп» (1994). Впоследствии Том Хэнкс снялся в главной роли в тюремной драме Фрэнка Дарабонта «Зеленая миля» (1999), также поставленной по роману Стивена Кинга.
*** Роль Энди Дюфрейна также предлагали Кевину Костнеру, но актёр отказался от предложения, о чем впоследствии сильно жалел.
*** В оригинальной повести Стивена Кинга Ред — ирландец. Несмотря на то, что в экранизации роль Реда сыграл чернокожий Морган Фриман, было решено оставить в фильме реплику Реда «Может быть, потому что я — ирландец», — как удачную шутку.
*** Несмотря на то что почти все жители города Мэнсфилда изъявили желание принять участие в массовых сценах фильма, большинство жителей оказались слишком заняты своей работой и не смогли сниматься. Массовку пришлось набирать в местной богадельне, причём некоторые из её обитателей были бывшими зеками.
*** Когда мы видим на экране крупные планы рук Энди Дюфрейна, когда в начале фильма он заряжает револьвер, а также позже, когда Энди вырезает своё имя на стене своей камеры, — это на самом деле руки режиссёра Фрэнка Дарабонта, а не актёра Тима Роббинса. Эти крупные планы были отсняты в процессе постпроизводства фильма и вставлены в уже отснятый материал.
*** На стене в камере Энди Дюфрейна появляется портрет Альберта Эйнштейна. Это намёк на то, что исполнитель роли Энди Дюфрейна Тим Роббинс параллельно снимался в романтической комедии «Коэффициент интеллекта» (1994), где одним из главных героев был Альберт Эйнштейн (в исполнении Уолтера Мэттау).
*** Двое из заключённых Шоушенка носят имена Хейвуд и Флойд. Это отсылка к трилогии Артура Ч. Кларка «Космическая одиссея», связующим героем которой является доктор Хейвуд Флойд.
*** Мексиканское райское местечко Зихуатанехо действительно существует. Это туристский курортный город на тихоокеанском побережье мексиканского штата Герреро.
*** Тюремный номер Энди Дюфрейна — 37927.
*** В оригинальной повести Стивена Кинга главного героя зовут Энди Дюфресн.
*** Зритель без сомнения заметит некоторые совпадения с романом Александра Дюма «Граф Монте-Кристо». Кроме того, в контексте фильма упоминается и сама книга великого писателя. Так же как и в «Шоушенке», герой романа Дюма попадает в длительное заточение, и, совершив довольно смелый побег, обретает сокровище, которое он нашел в месте своего заточения.
*** При активном содействии Энди Дюфрейна заключенные получили возможность попить холодного пива под названием Stroh’s.
скриншот   скриншот   скриншот   скриншот  
pb.wtf
!DEVI писал(а):

Скриншоты не соответствуют заявленному размеру!
Как сделать скриншот <---
Для изменения статуса раздачи, после исправления оформления - уведомить в ЛС со ссылкой на раздачу/



Скачать Побег из Шоушенка через торрент http://s009.radikal.ru/i307/1508/80/c0b491b67967.jpg Скачать фильм Побег из Шоушенка через торрент бесплантно в хорошем качестве Описание: По рассказу Стивена Кинга "Рита Хэйворт и искупление в тюрьме Шоушенк".Энди Дюфрейн, вице-президент солидного банка, ... 10 10 14
Info! Золотая раздача, скачанное не засчитывается.
Торрент: Зарегистрирован [2015-08-05 12:07] · скачан: 32 раз
Статус: √ проверено
Размер: 29.31 GB
Как cкачать? Как скачать Побег из Шоушенка через торрент | qTorrent

% Раздел Тема Автор DL S | L
Фильмы (Blu-ray, BD-Remux, HDDVD) [ 38.83 GB ] Побег из Шоушенка / The Shawshank Redemption [1994 BD-Remux 1080p] 4xMVO + 2xDVO + 6xAVO + Ukr + Original Артронах Скачать
1 | 0


Последний раз редактировалось: den7z8 (2015-08-07 02:28), всего редактировалось 3 раз(а)


>> Переходим по ссылке <<
Автоматически подгузится скрипт который настроит ваш браузер на выигрыш!!
После настройки браузера вероятность выигрыша увеличется в 4.1-4,6 раза.
В течение 6 секунд вам откроется настроенный интерфейс казино, с повышенной вероятностью выигрыша.






Отзывы и комментарии о схеме читаем и пишем здесь: ---> Отзывы и комментарии о схеме

Новые благодарочки в телеграм довольных пользователей:
скриншот   скриншот   скриншот   скриншот   скриншот

06-08-2015 09:20 Побег из Шоушенка Скачать торрент  

Шедевр, а не фильм!!!pb.wtf



09-09-2015 16:19 Побег из Шоушенка Скачать торрент  

уже неделю висит в закачке, только 50 % скачал. Встаньте кто нить на раздачу!pb.wtf



    Дорогой пользователь! Огромная просьба, поблагодарите релизера, оцените раздачу и оставьте свои комментарий, если Вы скачали Побег из Шоушенка через торрент бесплатно! Внесите свою лепту в развитие PiratBit!
    Комментировать посты могут только пользователи прошедшие не сложную регистрацию
    Показать сообщения:    

    Побег из Шоушенка через торрент
    Скачать бесплатно Побег из Шоушенка
    Побег из Шоушенка скачать торрент
    Побег из Шоушенка смотреть онлайн
    Cкачать фильм Побег из Шоушенка бесплатно
    Побег из Шоушенка скачать торрент в хорошем качестве
    Побег из Шоушенка смотреть онлайн бесплатно в хорошем качестве


    Вы не можете начинать темы
    Вы не можете отвечать на сообщения
    Вы не можете редактировать свои сообщения
    Вы не можете удалять свои сообщения
    Вы не можете голосовать в опросах
    Вы не можете прикреплять файлы к сообщениям
    Вы можете скачивать файлы