Ссылка на приватное зеркало нашего сайта всего за 1$. Внимание количество ограничено!!!

2 сезон

iTunes

1 сезон

1

iTunes

iTunes

iTunes

1 сезон

RePack

30

ИГРА 18+

pack

ВАЖНО

!!Акция!!

Alien_RageХит недели

RePack

MK11
pack

Забери бонус

RePack

jed

!!Акция!!

Alien_Rage

RePack

fifa19

RePack

Assassins Creed: Odyssey

RePack

NEED FOR SPEED™ PAYBACK

4 сезон

9 сезон

Бесстыжие 9 сезон

Все сериалы

все сериалы на PB.wtf

RePack

FAR CRY 5
  

Снегурочка (Иван Иванов-Вано) [ 1952, СССР, мультфильм, мюзикл, DVDRip от AVP Studio] pb.wtf

Снегурочка через торрент pb.wtf

Размер: 744 MB | Добавлен: 5 лет 2 мес. назад | Торрент скачан:77 раз
Скачать  

05-08-2015 12:18 Снегурочка Скачать торрент  

Снегурочка
Страна: СССР
Производство: Союзмультфильм

Жанр: мультфильм, мюзикл
Год выпуска: 1952
Продолжительность: 01:04:59

Перевод: Не требуется
Cубтитры: нет
Оригинальная аудиодорожка: русский

Режиссер: Иван Иванов-Вано

Роли озвучивали:
Вероника (Вера) Борисенко, Леонид Ктиторов, Ирина Масленникова, Вениамин Шевцов...
Полный список актёров

Описание:
Мультипликационный фильм по мотивам пьесы А. Н. Островского на музыку Н. А. Римского-Корсакова в обработке Л. Шварца
Снегурочка – дочь Деда Мороза и красавицы Весны. Ее ледяное сердце еще никогда не ведало простых человеческих радостей, никогда не знало любви до встречи с Лелем. Его любовь и тепло подарили девушке богатство окружающего мира, растопили сердце холодной красавицы...

Источник: DVD5 R5
Качество видео: DVDRip
Формат видео: AVI
Видео кодек: XviD
Аудио кодек: AC3
Видео: 704x528 (4:3), 25 fps, XviD ~ 1399 kbps avg, 0.151 bit/pixel
Аудио: 48 kHz, Dolby Digital AC3 2.0, 192 kbps

Раздача от:
Общее
Полное имя : E:\Tracker\2015\Снегурочка\Snegurochka.1952.DVDRip_[New-team]_by_AVP_Studio.avi
Формат : AVI
Формат/Информация : Audio Video Interleave
Размер файла : 744 Мбайт
Продолжительность : 1 ч. 4 м.
Общий поток : 1601 Кбит/сек
Программа кодирования : VirtualDubMod 1.5.10.3 | www.virtualdub-fr.org || (build 2550/release)
Библиотека кодирования : VirtualDubMod build 2550/release

Видео
Идентификатор : 0
Формат : MPEG-4 Visual
Профиль формата : Advanced Simple@L5
Параметр BVOP формата : 1
Параметр QPel формата : Нет
Параметр GMC формата : Без точки перехода
Параметр матрицы формата : Выборочная
Идентификатор кодека : XVID
Идентификатор кодека/Подсказка : XviD
Продолжительность : 1 ч. 4 м.
Битрейт : 1399 Кбит/сек
Ширина : 704 пикселя
Высота : 528 пикселей
Соотношение сторон : 4:3
Частота кадров : 25,000 кадров/сек
Цветовое пространство : YUV
Субдискретизация насыщенности : 4:2:0
Битовая глубина : 8 бит
Тип развёртки : Прогрессивная
Метод сжатия : С потерями
Бит/(Пиксели*Кадры) : 0.151
Размер потока : 650 Мбайт (87%)
Библиотека кодирования : XviD 73

Аудио
Идентификатор : 1
Формат : AC-3
Формат/Информация : Audio Coding 3
Расширение режима : CM (complete main)
Параметр Endianness формата : Big
Идентификатор кодека : 2000
Продолжительность : 1 ч. 4 м.
Вид битрейта : Постоянный
Битрейт : 192 Кбит/сек
Каналы : 2 канала
Расположение каналов : Front: L R
Частота : 48,0 КГц
Метод сжатия : С потерями
Размер потока : 89,2 Мбайт (12%)
Выравнивание : Разделение по промежуткам
Продолжительность промежутка : 40 мс. (1,00 видеокадр)
Время предзагрузки промежутка : 500 мс
pb.wtf



Скачать Снегурочка через торрент http://s013.radikal.ru/i322/1508/d6/a67d4ff4e2c1.png Скачать фильм Снегурочка через торрент бесплантно в хорошем качестве Описание:Мульликационный фильм по мотивам пьесы А. Н. Островского на музыку Н. А. Римского-Корсакова в обработке Л. ШварцаСнегурочка – ... 5 10 1
Торрент: Зарегистрирован [2015-08-05 12:18] · скачан: 77 раз
Статус: √ проверено
Размер: 744 MB
Как cкачать? Как скачать Снегурочка через торрент | qTorrent

% Раздел Тема Автор DL S | L
Наши сериалы [ 2.15 GB ] Мама для Снегурочки / Серии 1-4 из 4 [2017 Мело WEB-DLRip] bober100 Скачать
1 | 0
Отечественная Поп музыка (сборники) (mp3) [ 675 MB ] VA - Зимние муз новинки от снегурочки 2016 / MP3 / 256 kbps / Pop bober100 Скачать
1 | 0
Eurodance, Technopop, Disco (сборники) (mp3) [ 689 MB ] VA - Зажигательная дискотека Снегурочки и Деда Мороза 2016 / MP3 / 256 kbps / dance pop den7z8 Скачать
1 | 0
Eurodance, Technopop, Disco (сборники) (mp3) [ 682 MB ] VA - Зимние Муз новинки от снегурочки 2015 / MP3 / 256 kbps / Pop den7z8 Скачать
1 | 0
Наши мультфильмы [ 745 MB ] Снегурочка [ 1952 СССР мультфильм мюзикл DVDRip-AVC от AVP Studio] AVP Studio Скачать
2 | 0
Наши новые фильмы 2013 [ 2.2 GB ] Снегурочка [2013 DVDRip ()] coc900 Скачать
1 | 0
Наши фильмы (DVD фильмы) [ 5.41 GB ] Снегурочка [2014 DVD9] R5 voovaz Скачать
1 | 0

28-11-2019 20:33  

Отключить всю рекламу на сайте

    Дорогой пользователь! Огромная просьба, поблагодарите релизера, оцените раздачу и оставьте свои комментарий, если Вы скачали Снегурочка через торрент бесплатно! Внесите свою лепту в развитие PiratBit!
    Комментировать посты могут только пользователи прошедшие не сложную регистрацию
    Показать сообщения:    

    Снегурочка через торрент
    Скачать бесплатно Снегурочка
    Снегурочка скачать торрент
    Снегурочка смотреть онлайн
    Cкачать фильм Снегурочка бесплатно
    Снегурочка скачать торрент в хорошем качестве
    Снегурочка смотреть онлайн бесплатно в хорошем качестве


    Вы не можете начинать темы
    Вы не можете отвечать на сообщения
    Вы не можете редактировать свои сообщения
    Вы не можете удалять свои сообщения
    Вы не можете голосовать в опросах
    Вы не можете прикреплять файлы к сообщениям
    Вы можете скачивать файлы