Ссылка на приватное зеркало всего за 1$. Внимание количество ограничено!!!

OK

1+1

iTunes

мы

OK

1

WEB-DLRip

Джокер

Пифагор

Ведьмак / The Witcher сериал

Лицензия

ПШазам

ОК

Оно 2

iTunes

30
pack

Вам бонус

ВАЖНО

!!Акция!!

Alien_RageХит недели

RePack

Resident Evil 21

ИГРА 18+

pack

RePack

jed

!!Акция!!

Alien_Rage

RePack

fifa19

RePack

Assassins Creed: Odyssey

RePack

NEED FOR SPEED™ PAYBACK

4 сезон

9 сезон

Бесстыжие 9 сезон

Все сериалы

все сериалы на PB.wtf

RePack

FAR CRY 5
  

Господин Никто / Mr. Nobody (Жако ван Дормель / Jaco van Dormael) [2009, фантастика, фэнтези, драма, BDRip 720p от potroks] [EXTENDED] MVO [Лицензия] pb.wtf

Господин Никто через торрент pb.wtf

Размер: 6.37 GB | Добавлен: 4 года 5 мес. назад | Торрент скачан:521 раз
Скачать  

08-08-2015 03:36 Господин Никто Скачать торрент  

Господин Никто / Mr. Nobody
«Всё возможно, пока не сделан выбор»
Год выпуска: 2009
Страна: Бельгия, Германия, Канада, Франция / Pathe, Pan Européenne Production...
Жанр: фантастика, фэнтези, драма, мелодрама
Продолжительность: 02:35:35
Перевод: Профессиональный (многоголосый) [BD RUS]
Субтитры: русские (Forced), русские, английские
Навигация по главам: есть
Режиссер: Жако ван Дормель / Jaco van Dormael
В ролях:

Джаред Лето (Nemo Adult / Old Nemo), Сара Полли (Adult Elise), Дайан Крюгер (Anna Adult), Лин Дэн Пэм (Adult Jean), Рис Иванс (Father Nemo), Наташа Литтл (Mother Nemo), Тоби Регбо (Nemo age 15), Джуно Темпл (Anna age 15), Клер Стоун (Elise age 15), Томас Бирн (Nemo age 9), Одри Джакомини (Jean age 15), Лаура Брюмань (Anna age 9)
Описание: Проснувшийся немощным стариком Немо Никто оказывается последним смертным в гротескном будущем. Все люди уже давно бессмертны и с удовольствием наблюдают за телешоу, где главная звезда - дряхлый и безумный старик Немо, доживающий свои последние дни. Накануне конца к нему приходит журналист, и Немо рассказывает ему свою историю перескакивая из одной жизни в другую, параллельную, несколько раз за рассказ успев умереть.

Качество: BDRip 720p
Формат: MKV
Видео кодек: AVC
Аудио кодек: AC3
Видео: AVC, 1280x546 (2.35:1), 4577 kbps, 24 fps, 0,273 bit/pixel
Аудио №1: AC3 / 5.1 / 48 kHz / 640 kbps / 16 bit | RUS
Аудио №2: AC3 / 5.1 / 48 kHz / 640 kbps / 16 bit | ENG
Релиз группы:
Автор рипа: potroks

Код:

General
Unique ID                                : 229322157129402062540746618969815821849 (0xAC85D7475D8875EC85941F454A20AE19)
Complete name                            : N:\Фантастика\Gospodin.Nikto.2014.EC.DUAL.BDRip.720p.-HELLYWOOD.mkv
Format                                   : Matroska
Format version                           : Version 4 / Version 2
File size                                : 6.37 GiB
Duration                                 : 2h 35mn
Overall bit rate                         : 5 859 Kbps
Movie name                               : Mr. Nobody (2009) [Extended] - HELLYWOOD
Encoded date                             : UTC 2015-08-08 03:18:56
Writing application                      : mkvmerge v5.9.0 ('On The Loose') built on Dec 15 2012 16:39:58
Writing library                          : libebml v1.3.0 + libmatroska v1.4.0

Video
ID                                       : 1
Format                                   : AVC
Format/Info                              : Advanced Video Codec
Format profile                           : High@L4.1
Format settings, CABAC                   : Yes
Format settings, ReFrames                : 9 frames
Codec ID                                 : V_MPEG4/ISO/AVC
Duration                                 : 2h 35mn
Bit rate                                 : 4 577 Kbps
Width                                    : 1 280 pixels
Height                                   : 546 pixels
Display aspect ratio                     : 2.35:1
Frame rate                               : 24.000 fps
Color space                              : YUV
Chroma subsampling                       : 4:2:0
Bit depth                                : 8 bits
Scan type                                : Progressive
Bits/(Pixel*Frame)                       : 0.273
Stream size                              : 4.85 GiB (76%)
Title                                    : potroks
Writing library                          : x264 core 146 r2538 121396c
Encoding settings                        : cabac=1 / ref=9 / deblock=1:-3:-3 / analyse=0x3:0x113 / me=umh / subme=11 / psy=1 / psy_rd=1.02:0.06 / mixed_ref=1 / me_range=48 / chroma_me=1 / trellis=2 / 8x8dct=1 / cqm=0 / deadzone=21,11 / fast_pskip=0 / chroma_qp_offset=-3 / threads=9 / lookahead_threads=2 / sliced_threads=0 / nr=0 / decimate=0 / interlaced=0 / bluray_compat=0 / constrained_intra=0 / bframes=10 / b_pyramid=2 / b_adapt=2 / b_bias=0 / direct=3 / weightb=1 / open_gop=0 / weightp=2 / keyint=250 / keyint_min=23 / scenecut=40 / intra_refresh=0 / rc_lookahead=60 / rc=2pass / mbtree=0 / bitrate=4577 / ratetol=1.0 / qcomp=0.70 / qpmin=0 / qpmax=69 / qpstep=4 / cplxblur=20.0 / qblur=0.5 / vbv_maxrate=14000 / vbv_bufsize=14000 / nal_hrd=none / filler=0 / ip_ratio=1.35 / pb_ratio=1.25 / aq=1:0.80
Language                                 : English
Default                                  : Yes
Forced                                   : No

Audio #1
ID                                       : 2
Format                                   : AC-3
Format/Info                              : Audio Coding 3
Mode extension                           : CM (complete main)
Codec ID                                 : A_AC3
Duration                                 : 2h 35mn
Bit rate mode                            : Constant
Bit rate                                 : 640 Kbps
Channel(s)                               : 6 channels
Channel positions                        : Front: L C R, Side: L R, LFE
Sampling rate                            : 48.0 KHz
Bit depth                                : 16 bits
Compression mode                         : Lossy
Stream size                              : 712 MiB (11%)
Title                                    : MVO | DD 5.1 @ 640 kbps - Blu-Ray RUS
Language                                 : Russian
Default                                  : Yes
Forced                                   : No

Audio #2
ID                                       : 3
Format                                   : AC-3
Format/Info                              : Audio Coding 3
Mode extension                           : CM (complete main)
Codec ID                                 : A_AC3
Duration                                 : 2h 35mn
Bit rate mode                            : Constant
Bit rate                                 : 640 Kbps
Channel(s)                               : 6 channels
Channel positions                        : Front: L C R, Side: L R, LFE
Sampling rate                            : 48.0 KHz
Bit depth                                : 16 bits
Compression mode                         : Lossy
Stream size                              : 712 MiB (11%)
Title                                    : Original | DD 5.1 @ 640 kbps
Language                                 : English
Default                                  : No
Forced                                   : No

Text #1
ID                                       : 4
Format                                   : UTF-8
Codec ID                                 : S_TEXT/UTF8
Codec ID/Info                            : UTF-8 Plain Text
Title                                    : Forced
Language                                 : Russian
Default                                  : No
Forced                                   : No

Text #2
ID                                       : 5
Format                                   : UTF-8
Codec ID                                 : S_TEXT/UTF8
Codec ID/Info                            : UTF-8 Plain Text
Language                                 : Russian
Default                                  : No
Forced                                   : No

Text #3
ID                                       : 6
Format                                   : UTF-8
Codec ID                                 : S_TEXT/UTF8
Codec ID/Info                            : UTF-8 Plain Text
Language                                 : English
Default                                  : No
Forced                                   : No

Menu
00:00:00.000                             : en:(01)00:00:00:000
00:15:54.416                             : en:(02)00:15:54:416
00:22:54.000                             : en:(03)00:22:54:000
00:31:15.916                             : en:(04)00:31:15:916
00:45:03.541                             : en:(05)00:45:03:541
01:02:07.791                             : en:(06)01:02:07:791
01:13:36.250                             : en:(07)01:13:36:250
01:27:05.583                             : en:(08)01:27:05:583
01:40:49.833                             : en:(09)01:40:49:833
01:53:38.916                             : en:(10)01:53:38:916
02:15:11.000                             : en:(11)02:15:11:000
02:29:09.791                             : en:(12)02:29:09:791
02:35:35.875                             : en:(13)02:35:35:875

pb.wtf



Скачать Господин Никто через торрент http://i71.fastpic.ru/big/2015/0808/fe/ce848f2ef03ee9a6aff1b5be4c2d00fe.png Скачать фильм Господин Никто через торрент бесплантно в хорошем качестве Описание: Проснувшийся немощным стариком Немо Никто оказывается последним смертным в гротескном будущем. Все люди уже давно бессмертны и с ... 10 10 5
Info! Серебряная раздача, засчитывается только 50% скачанного.
Торрент: Зарегистрирован [2015-08-08 03:36] · скачан: 521 раз
Статус: √ проверено
Размер: 6.37 GB
Как cкачать? Как скачать Господин Никто через торрент | qTorrent

% Раздел Тема Автор DL S | L
Фильмы 2009 [ 2.22 GB ] Господин Никто / Mr. Nobody [2009 BDRip ] ACFIORENTINA Скачать
2 | 0
Фильмы 2009 [ 1.37 GB ] Господин Никто / Mr. Nobody [2009 HDRip] aleksander2009 Скачать
1 | 0
Фильмы [HD 720p, 1080p] (Хороший звук DUB, MVO) [ 9.67 GB ] Господин Никто / Mr. Nobody [Extended cut] [2009 Бельгия Германия BDRip 720p] Многоголосый закадровый + Original + Subs от R.G. PiratFilms Messa-fan Скачать
1 | 0
Фильмы 2009 [ 1.47 GB ] Господин Никто / Mr. Nobody [2009 DVDRip лицензия] Чупачупсик Скачать
1 | 0
Видео (iPhone, iPod Touch) [ 1.73 GB ] Господин Никто / Mr. Nobody [2009 Мело BDRip] ELEMENT Скачать
1 | 0
Фильмы [HD 720p, 1080p] (Хороший звук DUB, MVO) [ 7.37 GB ] Господин Никто / Мистер Никто / Mr. Nobody [2009 BDRip 720p] .::Sergey::. Скачать
1 | 0
Фильмы 2009 [ 2.05 GB ] Господин Никто / Mr. Nobody [2009 HDRip [Extended] лицензия] Lil Badun Скачать
1 | 0

28-11-2019 20:33  

Отключить всю рекламу на сайте

08-08-2015 09:32 Господин Никто Скачать торрент  

очень много раз пересматривал этот фильм в свое время! Отличный фильм!pb.wtf



12-08-2015 03:12 Господин Никто Скачать торрент  

Смотрел пару раз. На мой взгляд такой же непримечательный как и Жизнь Бенджамина Баттона. Идея - фишка, а потом - ни о чем. Есть масса фильмов поинтересней.pb.wtf



    Дорогой пользователь! Огромная просьба, поблагодарите релизера, оцените раздачу и оставьте свои комментарий, если Вы скачали Господин Никто через торрент бесплатно! Внесите свою лепту в развитие PiratBit!
    Комментировать посты могут только пользователи прошедшие не сложную регистрацию
    Показать сообщения:    

    Господин Никто через торрент
    Скачать бесплатно Господин Никто
    Господин Никто скачать торрент
    Господин Никто смотреть онлайн
    Cкачать фильм Господин Никто бесплатно
    Господин Никто скачать торрент в хорошем качестве
    Господин Никто смотреть онлайн бесплатно в хорошем качестве


    Вы не можете начинать темы
    Вы не можете отвечать на сообщения
    Вы не можете редактировать свои сообщения
    Вы не можете удалять свои сообщения
    Вы не можете голосовать в опросах
    Вы не можете прикреплять файлы к сообщениям
    Вы можете скачивать файлы