Ссылка на приватное зеркало нашего сайта всего за 1$. Внимание количество ограничено!!!

2 сезон

iTunes

1 сезон

1

2 сезон

2 сезон

iTunes

1 сезон

RePack

30

Новинка

ВАЖНО

ИГРА 18+

pack

RePack

MK11
pack

Забери бонус

RePack

jed

!!Акция!!

Alien_Rage

RePack

fifa19

RePack

Assassins Creed: Odyssey

RePack

NEED FOR SPEED™ PAYBACK

4 сезон

9 сезон

Бесстыжие 9 сезон

Все сериалы

все сериалы на PB.wtf

RePack

FAR CRY 5
  

Приятный на вид / Eye Candy / Сезон: 1 / Серии 1-10 из 10 (Нэйтан Хоуп, Марта Митчелл, Рассел Малкэй) [2015 г., триллер, драма, криминал, детектив, HDTVRip] DVO (Alternative Production) pb.wtf

Приятный на вид через торрент pb.wtf

Размер: 5.43 GB | Добавлен: 5 лет 3 мес. назад | Торрент скачан:112 раз
Скачать  

08-08-2015 05:39 Приятный на вид Скачать торрент  

Приятный на вид / Eye Candy
Год выпуска: 2015
Страна: США
Жанр: триллер, драма, криминал, детектив
Продолжительность: 10 x ~ 00:41:00
Перевод: Любительский двухголосный (Alternative Production)
Субтитры: отсутствуют

Режиссер: Нэйтан Хоуп, Марта Митчелл, Рассел Малкэй

Премьера в мире: 12 января 2015



В ролях: Виктория Джастис, Кэйси Дейдрик, Харви Гильен, Маркус Каллендер, Скотт Уайт, Кирси Клемонс, Джон Гарет Стоукер, Райан Купер, Мелани Николлз-Кинг, Теодора Вулли

Описание: Сериал, рассказывающий о жительнице Нью-Йорка, которая подозревает, что один из ее онлайн-ухажеров является серийным убийцей. Она применяет все свои хакерские данные, чтобы вычислить преступников. В этом ей поможет команда единомышленников.

Качество: HDTVRip
Формат: AVI
Видео кодек: XviD
Аудио кодек: MP3
Видео: 720x400 (16:9), 23.976 fps ~ 1600 kbps
Аудио: MP3, 48 KHz 2 ch ~ 192 Kb/s
Общее
Полное имя : Q:\TorF\Eye Candy [Alternative Production]\Eye Candy s01e01 [Alt Pro].avi
Формат : AVI
Формат/Информация : Audio Video Interleave
Размер файла : 544 Мбайт
Продолжительность : 41 м.
Общий поток : 1854 Кбит/сек
Программа кодирования : MEncoder SVN-r33883(20110719-gcc4.5.2)
Библиотека кодирования : VirtualDub build 32842/release

Видео
Идентификатор : 0
Формат : MPEG-4 Visual
Профиль формата : Advanced Simple@L5
Параметр BVOP формата : 2
Параметр QPel формата : Нет
Параметр GMC формата : Без точки перехода
Параметр матрицы формата : Default (H.263)
Режим смешивания : Сжатый битовый поток
Идентификатор кодека : XVID
Идентификатор кодека/Подсказка : XviD
Продолжительность : 41 м.
Битрейт : 1652 Кбит/сек
Ширина : 720 пикселей
Высота : 400 пикселей
Соотношение сторон : 16:9
Частота кадров : 23,976 кадра/сек
Цветовое пространство : YUV
Субдискретизация насыщенности : 4:2:0
Битовая глубина : 8 бит
Тип развёртки : Прогрессивная
Метод сжатия : С потерями
Бит/(Пиксели*Кадры) : 0.239
Размер потока : 485 Мбайт (89%)
Библиотека кодирования : XviD 73

Аудио
Идентификатор : 1
Формат : MPEG Audio
Версия формата : Version 1
Профиль формата : Layer 3
Режим : Joint stereo
Идентификатор кодека : 55
Идентификатор кодека/Подсказка : MP3
Продолжительность : 41 м.
Вид битрейта : Постоянный
Битрейт : 192 Кбит/сек
Каналы : 2 канала
Частота : 48,0 КГц
Метод сжатия : С потерями
Размер потока : 56,3 Мбайт (10%)
Выравнивание : Разделение по промежуткам
Продолжительность промежутка : 42 мс. (1,00 видеокадр)
Время предзагрузки промежутка : 500 мс.

pb.wtf



Скачать Приятный на вид через торрент http://pic.kartinco.top/images/11/dtxtt.jpg Скачать фильм Приятный на вид через торрент бесплантно в хорошем качестве Описание: Сериал, рассказывающий о жительнице Нью-Йорка, которая подозревает, что один из ее онлайн-ухажеров является серийным убийцей. Она ... 9.7 10 6
Info! Золотая раздача, скачанное не засчитывается.
Торрент: Зарегистрирован [2015-08-08 05:39] · скачан: 112 раз
Статус: √ проверено
Размер: 5.43 GB
Как cкачать? Как скачать Приятный на вид через торрент | qTorrent

% Раздел Тема Автор DL S | L
Зарубежные сериалы [ 11.53 GB ] Приятный на вид / Милашка / Eye Candy / Сезон: 1 / Серии: 1-7 из 10 [2015 WEB-DL 1080p] DVO + Original Assasinca Скачать
1 | 0

28-11-2019 20:33  

Отключить всю рекламу на сайте

    Дорогой пользователь! Огромная просьба, поблагодарите релизера, оцените раздачу и оставьте свои комментарий, если Вы скачали Приятный на вид через торрент бесплатно! Внесите свою лепту в развитие PiratBit!
    Комментировать посты могут только пользователи прошедшие не сложную регистрацию
    Показать сообщения:    

    Приятный на вид через торрент
    Скачать бесплатно Приятный на вид
    Приятный на вид скачать торрент
    Приятный на вид смотреть онлайн
    Cкачать фильм Приятный на вид бесплатно
    Приятный на вид скачать торрент в хорошем качестве
    Приятный на вид смотреть онлайн бесплатно в хорошем качестве


    Вы не можете начинать темы
    Вы не можете отвечать на сообщения
    Вы не можете редактировать свои сообщения
    Вы не можете удалять свои сообщения
    Вы не можете голосовать в опросах
    Вы не можете прикреплять файлы к сообщениям
    Вы можете скачивать файлы