Ссылка на приватное зеркало нашего сайта всего за 1$. Внимание количество ограничено!!!

2 сезон

iTunes

1 сезон

1

2 сезон

2 сезон

iTunes

1 сезон

RePack

30

Новинка

ВАЖНО

ИГРА 18+

pack

RePack

MK11
pack

Забери бонус

RePack

jed

!!Акция!!

Alien_Rage

RePack

fifa19

RePack

Assassins Creed: Odyssey

RePack

NEED FOR SPEED™ PAYBACK

4 сезон

9 сезон

Бесстыжие 9 сезон

Все сериалы

все сериалы на PB.wtf

RePack

FAR CRY 5
  

Рейд : Дилогия / The Raid : Dilogy [2011-2014, боевик, триллер, BDRip-AVC, 60fps, Dub, MVO, AVO, VO, Original] от R.G. HD-Films pb.wtf

Рейд : Дилогия через торрент pb.wtf

Раздают: 2 [ 0 KB/s ]
Размер: 12.74 GB | Добавлен: 4 года 7 мес. назад | Торрент скачан:228 раз
Скачать  

08-08-2015 09:48 Рейд : Дилогия Скачать торрент  

Рейд / The Raid

Год выпуска: 2011
Страна: Индонезия, Франция, США
Жанр: боевик, триллер
Продолжительность: 01:41:04
Перевод: Дубляж, Оригинальный
Субтитры: русские (Полные)
Режиссер: Гарет Эванс
В ролях: Ико Уайс (Rama), Джо Таслим (Jaka), Донни Аламшя (Andi), Яян Рухьян (Mad Dog), Пьер Грюно (Wahyu), Рэй Сахетапи (Tama), Тегар Сатрия (Bowo), Ианг Дармаван (Gofar), Эка «Пиранья» Рахмадия (Dagu), Верди Солайман (Budi), Альфридиус Годфред (Machete Gang #1), Рулли Сантосо (Machete Gang #2)
Описание:
Отряд спецназовцев получает задание проникнуть в многоэтажный дом, расположенный в самом сердце трущоб Джакарты, и арестовать обосновавшегося там наркобарона, которого охраняет целая армия вооруженных до зубов головорезов. Операцию нужно провести без лишнего шума, но нелепая случайность нарушает планы служителей закона. Теперь бойцам негде спрятаться и некуда бежать. Перед ними 30 этажей ада, где смертью грозит каждый неверный шаг. Война по правилам кончилась. Выживает сильнейший!
Рейтинг:

MPAA: R - Лицам до 17 лет обязательно присутствие взрослого
Качество: BDRip-AVC 60fps
Формат: MKV
Видео: AVC, 1024x576 (16:9), 4759 kbps, 60 fps, 0,134 bpp
Аудио 1: русский / AC3 / 5.1 / 48 kHz / 640 kbps / 16 bit
Аудио 2: индонезийский / AC3 / 5.1 / 48 kHz / 640 kbps / 16 bit |(Original) Оригинал (Отдельно в папке)|
Навигация по главам: есть

General
Unique ID : 179148573593966602908131537232100078178 (0x86C6C29EF3427405B8D1ADF9D3003262)
Complete name : D:\Рейд BDRip-AVC 60fps R.G. HD-Films\Рейд 1.mkv
Format : Matroska
Format version : Version 4 / Version 2
File size : 3.89 GiB
Duration : 1h 41mn
Overall bit rate mode : Variable
Overall bit rate : 5 509 Kbps
Movie name : Tiberiumsun69
Encoded date : UTC 2016-03-26 05:46:50
Writing application : mkvmerge v8.3.0 ('Over the Horizon') 64bit
Writing library : libebml v1.3.1 + libmatroska v1.4.2
DURATION : 01:41:04.160000000
NUMBER_OF_FRAMES : 189505
NUMBER_OF_BYTES : 485132800
_STATISTICS_WRITING_APP : mkvmerge v8.3.0 ('Over the Horizon') 64bit
_STATISTICS_WRITING_DATE_UTC : 2016-03-26 05:46:50
_STATISTICS_TAGS : BPS DURATION NUMBER_OF_FRAMES NUMBER_OF_BYTES
Attachment : Yes

Video
ID : 1
Format : AVC
Format/Info : Advanced Video Codec
Format profile : High@L4.1
Format settings, CABAC : Yes
Format settings, ReFrames : 3 frames
Codec ID : V_MPEG4/ISO/AVC
Duration : 1h 41mn
Bit rate mode : Variable
Bit rate : 4 760 Kbps
Maximum bit rate : 5 000 Kbps
Width : 1 024 pixels
Height : 576 pixels
Display aspect ratio : 16:9
Frame rate : 60.000 fps
Standard : NTSC
Color space : YUV
Chroma subsampling : 4:2:0
Bit depth : 8 bits
Scan type : Progressive
Bits/(Pixel*Frame) : 0.134
Stream size : 3.36 GiB (86%)
Title : Tiberiumsun69
Language : English
Default : Yes
Forced : No
Color primaries : BT.470-6 System B, BT.470-6 System G, BT.601-6 625, BT.1358 625, BT.1700 625 PAL, BT.1700 625 SECAM
Transfer characteristics : BT.470-6 System B, BT.470-6 System G
Matrix coefficients : BT.470-6 System B, BT.470-6 System G, BT.601-6 625, BT.1358 625, BT.1700 625 PAL, BT.1700 625 SECAM, IEC 61966-2-4 601

Audio
ID : 2
Format : AC-3
Format/Info : Audio Coding 3
Mode extension : CM (complete main)
Codec ID : A_AC3
Duration : 1h 41mn
Bit rate mode : Constant
Bit rate : 640 Kbps
Channel(s) : 6 channels
Channel positions : Front: L C R, Side: L R, LFE
Sampling rate : 48.0 KHz
Bit depth : 16 bits
Compression mode : Lossy
Stream size : 463 MiB (12%)
Title : Дубляж
Language : Russian
Default : Yes
Forced : No

Text
ID : 3
Format : UTF-8
Codec ID : S_TEXT/UTF8
Codec ID/Info : UTF-8 Plain Text
Title : Полные
Language : Russian
Default : No
Forced : No

Menu
00:00:00.000 : en:
00:06:15.124 : en:
00:12:36.380 : en:
00:17:37.765 : en:
00:22:45.696 : en:
00:27:06.916 : en:
00:32:45.880 : en:
00:37:27.495 : en:
00:42:37.888 : en:
00:48:49.927 : en:
00:55:16.104 : en:
00:59:58.720 : en:
01:05:15.828 : en:
01:10:53.332 : en:
01:16:29.167 : en:
01:30:09.779 : en:
Рейд 2 / The Raid 2: Berandal

Год выпуска: 2014
Страна: Индонезия, США
Жанр: боевик, триллер, криминал
Продолжительность: 02:30:28
Перевод: Дубляж
Субтитры: русские (Полные), русские (Полные Матвеев (без цензуры)), английские (Полные v1), английские (Полные v2), английские (Полные SDH), английские (Полные SDH Colored), английские (Комментарии)
Режиссер: Гарет Эванс
В ролях: Ико Уайс (Rama), Арифин Путра (Uco), Тио Пакусодево (Bangun), Ока Антара (Eka), Алекс Аббад (Bejo), Чечеп Ариф Рахман (The Assassin), Джулия Эстелл (Alicia «Hammer Girl»), Вери Три Юлисман (Baseball Bat Man), Рюхэй Мацуда (Keichi), Кэнити Эндо (Hideaki Goto), Кадзуки Китамура (Ryuichi), Яян Рухьян (Prakoso)
Описание:
Из трех полицейских, выбравшихся из кровавого ада первой части, в живых остается только офицер Рама. Уволившись из спецназа, он пробует начать жизнь заново, но вскоре прошлое жестко напоминает о себе - преступники убивают его брата. Чтобы отомстить, он внедряется в мощный криминальный синдикат, где быстро поднимается до самых вершин бандитской иерархии. Врагов здесь еще больше, и каждый неверный шаг может оказаться последним. Здесь нет ни близких, ни друзей, ни любви, ни тоски, ни жалости!
Рейтинг:

MPAA: R - Лицам до 17 лет обязательно присутствие взрослого
Качество: BDRip-AVC 60fps
Формат: MKV
Видео: AVC, 1024x424 (2.40:1), 3679 kbps, 60 fps, 0,141 bpp
Аудио 1: русский / AC3 / 5.1 / 48 kHz / 640 kbps / 16 bit
Аудио 2: русский / AC3 / 5.1 / 48 kHz / 640 kbps / 16 bit |(AVO) Ю. Сербин|
Аудио 3: русский / AC3 / 5.1 / 48 kHz / 640 kbps / 16 bit |(VO) А. Матвеев|
Аудио 4: русский / AC3 / 5.1 / 48 kHz / 640 kbps / 16 bit |(VO) Д. Есарев|
Аудио 5: украинский / AC3 / 2.0 / 48 kHz / 192 kbps / 16 bit |(MVO) Многоголосый, закадровый|
Аудио 6: английский / AC3 / 5.1 / 48 kHz / 640 kbps / 16 bit |(Dub) Дубляж|
Аудио 7: индонезийский / AC3 / 5.1 / 48 kHz / 640 kbps / 16 bit |(Original) Оригинал|
Аудио 8: английский / AC3 / 2.0 / 48 kHz / 192 kbps / 16 bit |(Commentary) Комментарии реж.|
Навигация по главам: есть

General
Unique ID : 232644837556561014976502486713257236617 (0xAF05C41265D7C23188FDE2522B0D1889)
Complete name : D:\Рейд BDRip-AVC 60fps R.G. HD-Films\Рейд 2.mkv
Format : Matroska
Format version : Version 4 / Version 2
File size : 4.63 GiB
Duration : 2h 30mn
Overall bit rate mode : Variable
Overall bit rate : 4 407 Kbps
Movie name : Tiberiumsun69
Encoded date : UTC 2016-03-26 07:14:39
Writing application : mkvmerge v8.3.0 ('Over the Horizon') 64bit
Writing library : libebml v1.3.1 + libmatroska v1.4.2
DURATION : 02:25:39.148000000
NUMBER_OF_FRAMES : 2611
NUMBER_OF_BYTES : 147177
_STATISTICS_WRITING_APP : mkvmerge v8.3.0 ('Over the Horizon') 64bit
_STATISTICS_WRITING_DATE_UTC : 2016-03-26 07:14:39
_STATISTICS_TAGS : BPS DURATION NUMBER_OF_FRAMES NUMBER_OF_BYTES
Attachment : Yes

Video
ID : 1
Format : AVC
Format/Info : Advanced Video Codec
Format profile : High@L4.1
Format settings, CABAC : Yes
Format settings, ReFrames : 3 frames
Codec ID : V_MPEG4/ISO/AVC
Duration : 2h 30mn
Bit rate mode : Variable
Bit rate : 3 680 Kbps
Maximum bit rate : 4 000 Kbps
Width : 1 024 pixels
Height : 424 pixels
Display aspect ratio : 2.40:1
Frame rate : 60.000 fps
Standard : NTSC
Color space : YUV
Chroma subsampling : 4:2:0
Bit depth : 8 bits
Scan type : Progressive
Bits/(Pixel*Frame) : 0.141
Stream size : 3.87 GiB (83%)
Title : Tiberiumsun69
Language : English
Default : Yes
Forced : No
Color primaries : BT.601-6 525, BT.1358 525, BT.1700 NTSC, SMPTE 170M
Transfer characteristics : BT.601-6 525, BT.601-6 625, BT.1358 525, BT.1358 625, BT.1700 NTSC, SMPTE 170M
Matrix coefficients : BT.601-6 525, BT.1358 525, BT.1700 NTSC, SMPTE 170M

Audio
ID : 2
Format : AC-3
Format/Info : Audio Coding 3
Mode extension : CM (complete main)
Codec ID : A_AC3
Duration : 2h 30mn
Bit rate mode : Constant
Bit rate : 640 Kbps
Channel(s) : 6 channels
Channel positions : Front: L C R, Side: L R, LFE
Sampling rate : 48.0 KHz
Bit depth : 16 bits
Compression mode : Lossy
Stream size : 689 MiB (15%)
Title : Дубляж
Language : Russian
Default : Yes
Forced : No

Text #1
ID : 3
Format : UTF-8
Codec ID : S_TEXT/UTF8
Codec ID/Info : UTF-8 Plain Text
Title : Полные
Language : Russian
Default : No
Forced : No

Text #2
ID : 4
Format : UTF-8
Codec ID : S_TEXT/UTF8
Codec ID/Info : UTF-8 Plain Text
Title : Полные Матвеев (без цензуры)
Language : Russian
Default : No
Forced : No

Text #3
ID : 5
Format : UTF-8
Codec ID : S_TEXT/UTF8
Codec ID/Info : UTF-8 Plain Text
Title : Полные v1
Language : English
Default : No
Forced : No

Text #4
ID : 6
Format : UTF-8
Codec ID : S_TEXT/UTF8
Codec ID/Info : UTF-8 Plain Text
Title : Полные v2
Language : English
Default : No
Forced : No

Text #5
ID : 7
Format : UTF-8
Codec ID : S_TEXT/UTF8
Codec ID/Info : UTF-8 Plain Text
Title : Полные SDH
Language : English
Default : No
Forced : No

Text #6
ID : 8
Format : UTF-8
Codec ID : S_TEXT/UTF8
Codec ID/Info : UTF-8 Plain Text
Title : Полные SDH Colored
Language : English
Default : No
Forced : No

Text #7
ID : 9
Format : UTF-8
Codec ID : S_TEXT/UTF8
Codec ID/Info : UTF-8 Plain Text
Title : Комментарии
Language : English
Default : No
Forced : No

Menu
00:00:00.000 : :Chapter 01
00:08:02.315 : :Chapter 02
00:14:03.217 : :Chapter 03
00:21:08.892 : :Chapter 04
00:31:45.486 : :Chapter 05
00:42:22.122 : :Chapter 06
00:50:55.177 : :Chapter 07
01:01:58.423 : :Chapter 08
01:11:49.763 : :Chapter 09
01:24:47.165 : :Chapter 10
01:36:31.994 : :Chapter 11
01:44:18.752 : :Chapter 12
01:48:31.713 : :Chapter 13
01:57:20.283 : :Chapter 14
02:05:59.093 : :Chapter 15
02:20:02.894 : :Chapter 16
Просьба к переливающим на другие сайты, в оформлении указывайте пожалуйста авторство группы Внимание! Видео и звук обновлены. 27.03.2016 Авторская группа в ВК
pb.wtf



Скачать Рейд : Дилогия через торрент http://i73.fastpic.ru/big/2016/0326/26/1176fcc1e534a4ed50ba444e70dac326.png Скачать фильм Рейд : Дилогия через торрент бесплантно в хорошем качестве Описание: Отряд спецназовцев получает задание проникнуть в многоэтажный дом, расположенный в самом сердце трущоб Джакарты, и арестовать ... 9.4 10 25
Info! Золотая раздача, скачанное не засчитывается.
Торрент: Зарегистрирован [2016-03-26 17:02] · скачан: 228 раз
Статус: √ проверено
Размер: 12.74 GB
Как cкачать? Как скачать Рейд : Дилогия через торрент | qTorrent

% Раздел Тема Автор DL S | L
Сборники и Сиквелы (48-60 fps) [ 18.97 GB ] Рейд : Дилогия / The Raid : Dilogy [2011-2014 BDRip 720p 60fps Dub MVO AVO VO Original] от R.G. HD-Films Tiberiumsun69 Скачать
2 | 1
Сборники и Сиквелы (48-60 fps) [ 43.05 GB ] Рейд : Дилогия / The Raid : Dilogy [2011-2014 BDRip 1080p 60fps Dub MVO AVO VO Original] от R.G. HD-Films Tiberiumsun69 Скачать
2 | 1


Последний раз редактировалось: Tiberiumsun69 (2018-02-09 08:14), всего редактировалось 6 раз(а)

28-11-2019 20:33  

Отключить всю рекламу на сайте

08-08-2015 12:31 Рейд : Дилогия Скачать торрент  

Что-то немного непонятно... Скрины по размеру как-то не похожи на заявленное разрешение видео...pb.wtf



08-08-2015 12:43 Рейд : Дилогия Скачать торрент  

MATPOC писал(а):

Что-то немного непонятно... Скрины по размеру как-то не похожи на заявленное разрешение видео...

Пардон.Поправил. pb.wtf



08-08-2015 12:59 Рейд : Дилогия Скачать торрент  

Tiberiumsun69 писал(а):

Пардон.Поправил.

Зер гутт )) yespb.wtf



18-12-2015 03:40 Рейд : Дилогия Скачать торрент  

Офигеный экшн.смотрите все.pb.wtf



26-03-2016 17:04 Рейд : Дилогия Скачать торрент  

Видео и звук обновлены. 27.03.2016.
Без артифактов и с предельной плавностью.pb.wtf



26-03-2016 17:39 Рейд : Дилогия Скачать торрент  

вот оно - счастье. Автору и его родным долгих лет жизни!pb.wtf



26-03-2016 17:41 Рейд : Дилогия Скачать торрент  

Technoir, Завтра будут 720p и 1080p работы.)pb.wtf



26-03-2016 18:00 Рейд : Дилогия Скачать торрент  

Tiberiumsun69 писал(а):

Technoir, Завтра будут 720p и 1080p работы.)

я уже весь в завтре!pb.wtf



26-03-2016 18:51 Рейд : Дилогия Скачать торрент  

не качается..... pb.wtf



    Дорогой пользователь! Огромная просьба, поблагодарите релизера, оцените раздачу и оставьте свои комментарий, если Вы скачали Рейд : Дилогия через торрент бесплатно! Внесите свою лепту в развитие PiratBit!
    Комментировать посты могут только пользователи прошедшие не сложную регистрацию
    Показать сообщения:    

    Рейд : Дилогия через торрент
    Скачать бесплатно Рейд : Дилогия
    Рейд : Дилогия скачать торрент
    Рейд : Дилогия смотреть онлайн
    Cкачать фильм Рейд : Дилогия бесплатно
    Рейд : Дилогия скачать торрент в хорошем качестве
    Рейд : Дилогия смотреть онлайн бесплатно в хорошем качестве


    Вы не можете начинать темы
    Вы не можете отвечать на сообщения
    Вы не можете редактировать свои сообщения
    Вы не можете удалять свои сообщения
    Вы не можете голосовать в опросах
    Вы не можете прикреплять файлы к сообщениям
    Вы можете скачивать файлы