Ссылка на приватное зеркало нашего сайта всего за 1$. Внимание количество ограничено!!!

2 сезон

iTunes

1 сезон

1

iTunes

iTunes

iTunes

1 сезон

RePack

30

ИГРА 18+

pack

ВАЖНО

!!Акция!!

Alien_RageХит недели

RePack

MK11
pack

Забери бонус

RePack

jed

!!Акция!!

Alien_Rage

RePack

fifa19

RePack

Assassins Creed: Odyssey

RePack

NEED FOR SPEED™ PAYBACK

4 сезон

9 сезон

Бесстыжие 9 сезон

Все сериалы

все сериалы на PB.wtf

RePack

FAR CRY 5
  

Три богатыря: Ход конем (Константин Феоктистов) [2014, мультфильм, комедия, приключения, HDRip] pb.wtf

Три богатыря: Ход конем через торрент pb.wtf

Размер: 700 MB | Добавлен: 5 лет 2 мес. назад | Торрент скачан:153 раза
Скачать  

08-08-2015 10:45 Три богатыря: Ход конем Скачать торрент  


Год выпуска: 2014
Страна: Россия
Жанр: мультфильм, комедия, приключения, фэнтези
Продолжительность: 01:14:42
Перевод: Не требуется
Режиссер: Константин Феоктистов
В ролях: Сергей Маковецкий (князь Киевский, озвучка), Дмитрий Высоцкий (конь Юлий, озвучка), Дмитрий Нагиев (дуб, озвучка), Олег Куликович (Алеша Попович, озвучка), Валерий Соловьев (Добрыня Никитич, озвучка), Дмитрий Быковский-Ромашов (Илья Муромец, озвучка), Гоша Куценко (Потаня, озвучка), Наргиз Закирова (цыганка, озвучка), Анатолий Петров (Тихон, озвучка), Лия Медведева (Любава, озвучка), Мария Цветкова-Овсянникова (Алёнушка, озвучка), Елена Шульман (Настасья, озвучка)
Описание:
Придворный конь Гай Юлий Цезарь на свою беду подслушивает разговор бояр и узнает о заговоре против князя. Что же делать? Защитить-то князя некому! Богатыри далеко - ловят разбойника Потаню, Горыныч в отпуске, войско на учениях... Но если плохие парни собираются захватить мир, то кому-то же надо его спасти? Кто же он, настоящий герой, который придет на помощь? Конечно, конь Юлий! Настоящий стратег и «великий комбинатор». Он непременно всех спасет, а если не спасет, то хотя бы постарается. Главное, чтобы операция по спасению мира не обернулась полной катастрофой.

Качество: HDRip
Формат: AVI
Видео кодек: XviD
Аудио кодек: MP3
Видео: XviD, 656x352 (1.864), 1171 kbps, 24 fps, 0,211 bpp
Аудио: MP3 / 2.0 / 48 kHz / 128 kbps

Код:

General
Complete name                            : E:\торент\Tri.Bogatyrya.Khod.Konyom.2014.HDRip.avi
Format                                   : AVI
Format/Info                              : Audio Video Interleave
File size                                : 700 MiB
Duration                                 : 1h 14mn
Overall bit rate                         : 1 309 Kbps
Writing application                      : VirtualDubMod 1.5.10.3 | www.virtualdub-fr.org || (build 2550/release)
Writing library                          : VirtualDubMod build 2550/release

Video
ID                                       : 0
Format                                   : MPEG-4 Visual
Format profile                           : Advanced Simple@L5
Format settings, BVOP                    : 1
Format settings, QPel                    : No
Format settings, GMC                     : No warppoints
Format settings, Matrix                  : Custom
Codec ID                                 : XVID
Codec ID/Hint                            : XviD
Duration                                 : 1h 14mn
Bit rate                                 : 1 172 Kbps
Width                                    : 656 pixels
Height                                   : 352 pixels
Display aspect ratio                     : 1.864
Frame rate                               : 24.000 fps
Color space                              : YUV
Chroma subsampling                       : 4:2:0
Bit depth                                : 8 bits
Scan type                                : Progressive
Compression mode                         : Lossy
Bits/(Pixel*Frame)                       : 0.211
Stream size                              : 626 MiB (90%)
Writing library                          : XviD 73

Audio
ID                                       : 1
Format                                   : MPEG Audio
Format version                           : Version 1
Format profile                           : Layer 3
Codec ID                                 : 55
Codec ID/Hint                            : MP3
Duration                                 : 1h 14mn
Bit rate mode                            : Constant
Bit rate                                 : 128 Kbps
Channel(s)                               : 2 channels
Sampling rate                            : 48.0 KHz
Compression mode                         : Lossy
Stream size                              : 68.4 MiB (10%)
Alignment                                : Aligned on interleaves
Interleave, duration                     : 42 ms (1.00 video frame)
Interleave, preload duration             : 504 ms
Writing library                          : LAME3.99r
Encoding settings                        : -m s -V 4 -q 2 -lowpass 17 -b 128

pb.wtf



Скачать Три богатыря: Ход конем через торрент http://pic1.kartinco.top/images/10/y4s97.jpg Скачать фильм Три богатыря: Ход конем через торрент бесплантно в хорошем качестве Описание: Придворный конь Гай Юлий Цезарь на свою беду подслушивает разговор бояр и узнает о заговоре против князя. Что же делать? ... 8.2 10 10
Торрент: Зарегистрирован [2015-08-08 10:45] · скачан: 153 раз
Статус: √ проверено
Размер: 700 MB
Как cкачать? Как скачать Три богатыря: Ход конем через торрент | qTorrent

% Раздел Тема Автор DL S | L
Наши Мультфильмы (HD, WEB-DL 720p, 1080p) [ 3.85 GB ] Три богатыря: Ход конем [2014 мультфильм BDRip 720p] Newton5 Скачать
1 | 0
3D Мультфильмы [ 5.4 GB ] Три богатыря: Ход конем [2014 Мультфильм BDrip 1080p] OverUnder / Вертикальная стереопара serega768 Скачать
2 | 0
Наши Мультфильмы (HD, WEB-DL 720p, 1080p) [ 16.56 GB ] Три богатыря: Ход Конем [2014 Мультфильм полнометражный Blu-ray Оригинал] Бумер Скачать
1 | 0
Наши Мультфильмы (HD, WEB-DL 720p, 1080p) [ 7.03 GB ] Три богатыря: Ход конем [2014 мультфильм BDRip 1080p] Original Seedtank Скачать
1 | 0
Наши мультфильмы [ 1.37 GB ] Три богатыря: Ход Конем [2014 Мультфильм полнометражный BDRip] Оригинал Бумер Скачать
1 | 0
Наши мультфильмы [ 1.2 GB ] Три богатыря: Ход конем [2014 Россия мультфильм WEB-DLRip-AVC] ] От R.G. PiratFilms White Smoke Скачать
1 | 0

28-11-2019 20:33  

Отключить всю рекламу на сайте

    Дорогой пользователь! Огромная просьба, поблагодарите релизера, оцените раздачу и оставьте свои комментарий, если Вы скачали Три богатыря: Ход конем через торрент бесплатно! Внесите свою лепту в развитие PiratBit!
    Комментировать посты могут только пользователи прошедшие не сложную регистрацию
    Показать сообщения:    

    Три богатыря: Ход конем через торрент
    Скачать бесплатно Три богатыря: Ход конем
    Три богатыря: Ход конем скачать торрент
    Три богатыря: Ход конем смотреть онлайн
    Cкачать фильм Три богатыря: Ход конем бесплатно
    Три богатыря: Ход конем скачать торрент в хорошем качестве
    Три богатыря: Ход конем смотреть онлайн бесплатно в хорошем качестве


    Вы не можете начинать темы
    Вы не можете отвечать на сообщения
    Вы не можете редактировать свои сообщения
    Вы не можете удалять свои сообщения
    Вы не можете голосовать в опросах
    Вы не можете прикреплять файлы к сообщениям
    Вы можете скачивать файлы