Всегда рабочее зеркало без VPN и Proxy просто перед .vidak.icu напиши любое слово или цифру, Пример http://3ert.vidak.icu

MVO

2 сезон

1 сезон

1

1 сезон

iTunes

2 сезон

13

1 сезон

Deluxe

pack

Рекомендуем

Пиратка

30

ВАЖНО

RePack

MK11

RePack

jed

RePack

fifa19

RePack

RDR2

RePack

NEED FOR SPEED™ PAYBACK

Кинопоиск HD

6 сезон

 Острые козырьки 6 сезон

Все сериалы

все сериалы на PB.wtf

RePack

FAR CRY 5

Anonymous, нам критически не хватает 5601 руб. на оплату серверов и переферии за Апрель, помоги нам пожалуйста, вся надежда только на тебя. В благодарность мы отключим тебе всю рекламу на сайте!

×
  
Magnet ссылка

Парни из Абу-Грейб / Boys of Abu Ghraib (Люк Моран) [2014 г., триллер, драма, военный, HDRip, Профессиональный многоголосый закадровый] pb.wtf

Парни из Абу-Грейб через торрент pb.wtf

Размер: 709 MB | Добавлен: 6 лет 9 мес. назад | Торрент скачан:200 раз
Смотреть онлайн Парни из Абу-Грейб | Скачать    Ребята, помогите собрать деньги на оплату серверов!!!

08-08-2015 18:25 Парни из Абу-Грейб Скачать торрент  

Парни из Абу-Грейб / Boys of Abu Ghraib
Год выпуска: 2014
Страна: США / Rebel One Pictures
Жанр: триллер, драма, военный
Продолжительность: 01:42:12
Перевод: Профессиональный многоголосый закадровый

Режиссер: Люк Моран

IMDB 5.30 (1331)


В ролях: Люк Моран, Шон Эстин, Сара Пэкстон, Омид Абтахи, Джон Хёрд, Майкл Уэлш, Джон Робинсон, Элайджа Келли, Скотт Гордон-Паттерсон, Жермен Уильямс

Описание: После терактов 11 сентября Джек Фармер идет в армию, чтобы поучаствовать в военных действиях в Ираке и попадает служить в иракскую тюрьму Абу-Грейб, где он заводит дружбу с одним из иракских заключенных.

Качество: HDRip
Формат: AVI
Видео кодек: XviD
Аудио кодек: MP3
Видео: 640x272 (2.35:1), 23.976 fps, XviD build 50 ~832 kbps avg, 0.20 bit/pixel
Аудио: 48 kHz, MPEG Layer 3, 2 ch, ~128.00 kbps avg

Общее
Полное имя : F:\кино\Парни из Абу-Грейб.2014.HDRip.avi
Формат : AVI
Формат/Информация : Audio Video Interleave
Размер файла : 709 Мбайт
Продолжительность : 1 ч. 42 м.
Общий поток : 970 Кбит/сек
Программа кодирования : VirtualDubMod 1.5.10.3 | www.virtualdub-fr.org || (build 2550/release)
Библиотека кодирования : VirtualDubMod build 2550/release

Видео
Идентификатор : 0
Формат : MPEG-4 Visual
Профиль формата : Advanced Simple@L5
Параметр BVOP формата : 2
Параметр QPel формата : Нет
Параметр GMC формата : Без точки перехода
Параметр матрицы формата : Default (H.263)
Идентификатор кодека : XVID
Идентификатор кодека/Подсказка : XviD
Продолжительность : 1 ч. 42 м.
Битрейт : 833 Кбит/сек
Ширина : 640 пикселей
Высота : 272 пикселя
Соотношение сторон : 2,35:1
Частота кадров : 23,976 кадра/сек
Цветовое пространство : YUV
Субдискретизация насыщенности : 4:2:0
Битовая глубина : 8 бит
Тип развёртки : Прогрессивная
Метод сжатия : С потерями
Бит/(Пиксели*Кадры) : 0.200
Размер потока : 609 Мбайт (86%)
Библиотека кодирования : XviD 1.2.1 (UTC 2008-12-04)

Аудио
Идентификатор : 1
Формат : MPEG Audio
Версия формата : Version 1
Профиль формата : Layer 3
Режим : Joint stereo
Расширение режима : MS Stereo
Идентификатор кодека : 55
Идентификатор кодека/Подсказка : MP3
Продолжительность : 1 ч. 42 м.
Вид битрейта : Постоянный
Битрейт : 128 Кбит/сек
Каналы : 2 канала
Частота : 48,0 КГц
Метод сжатия : С потерями
Размер потока : 93,6 Мбайт (13%)
Выравнивание : Соединение по промежуткам
Продолжительность промежутка : 42 мс. (1,00 видеокадр)
Время предзагрузки промежутка : 504 мс.
Библиотека кодирования : LAME3.99r
Настройки программы : -m j -V 4 -q 2 -lowpass 17 -b 128

pb.wtf



Скачать Парни из Абу-Грейб через торрент https://pic1.kartinco.top/images/10/66qe6.jpg Скачать, смотреть онлайн Парни из Абу-Грейб бесплантно в хорошем качестве Описание: После терактов 11 сентября Джек Фармер идет в армию, чтобы поучаствовать в военных действиях в Ираке и попадает служить в ... 8.4 10 15
Торрент: Зарегистрирован [2015-08-08 18:25] · скачан: 200 раз
Статус: √ проверено
Размер: 709 MB
Как cкачать? Как скачать Парни из Абу-Грейб через торрент | UTorrent

% Раздел Тема Автор DL S | L
Фильмы с авторской озвучкой [ 1.46 GB ] Парни из Абу-Грейб / Boys of Abu Ghraib [2014 военный HDRip Авторский одноголосый [Алексей Матвеев] Ворон Скачать
1 | 0
T Фильмы 2014 (Звук TS, Cam, VO, DVO) [ 748 MB ] Парни из Абу-Грейб / Случай в тюрьме Абу Грейб / Boys of Abu Ghraib [2014 военный HDRip] VO / qwerty Mr. Freeman Скачать
1 | 0
T Фильмы 2014 (Звук TS, Cam, VO, DVO) [ 1.46 GB ] Парни из Абу-Грейб / Boys of Abu Ghraib [2014 военный HDRip Любительский [qwerty] GEKADOL Скачать
1 | 0

28-11-2019 20:33  

Отключить всю рекламу на сайте

    Дорогой пользователь! Огромная просьба, поблагодарите релизера, оцените раздачу и оставьте свои комментарий, если Вы скачали Парни из Абу-Грейб через торрент бесплатно!
    Комментировать посты могут только пользователи прошедшие не сложную регистрацию
    Показать сообщения:    

    Парни из Абу-Грейб через торрент
    Скачать бесплатно Парни из Абу-Грейб
    Парни из Абу-Грейб скачать торрент
    Парни из Абу-Грейб смотреть онлайн
    Cкачать фильм Парни из Абу-Грейб бесплатно
    Парни из Абу-Грейб скачать торрент в хорошем качестве
    Парни из Абу-Грейб смотреть онлайн бесплатно в хорошем качестве


    Вы не можете начинать темы
    Вы не можете отвечать на сообщения
    Вы не можете редактировать свои сообщения
    Вы не можете удалять свои сообщения
    Вы не можете голосовать в опросах
    Вы не можете прикреплять файлы к сообщениям
    Вы можете скачивать файлы