новый адрес пиратбит piratbit
Мега распродажа FORZA HORIZON 4 ULTIMATE+ВСЕ DLC+ОНЛАЙН всего за 499р. 349 руб. (супер цена). Внимание количество ограничено!!!

iTunes

1+1

iTunes

мы

iTunes

1

iTunes

Чернобыль

iTunes

Ральф против интернета

Лицензия

ПШазам

Лицензия

Игра престолов

Лицензия

30
pack

ВАЖНО

!!Акция!!

Alien_RageХит недели

RePack

Resident Evil 21

ИГРА 18+

pack

RePack

Metro:Exodus

!!Акция!!

Alien_Rage

RePack

fifa19

RePack

Assassins Creed: Odyssey

RePack

NEED FOR SPEED™ PAYBACK

3 сезон

9 сезон

Бесстыжие 9 сезон

Все сериалы

все сериалы на PB.wtf

RePack

FAR CRY 5
Ребята, катастрофически не хватает 1900р. для оплаты серверов за Октябрь (всвязи с блокировками трафик упал в 3 раза), 1-2р., выручайте.
  

Красный галстук (Мария Сауц, Владимир Сухобоков) [1948, СССР, детский, DVDRip от AVP Studio] pb.wtf

Красный галстук через торрент pb.wtf

Размер: 745 MB | Добавлен: 4 года 3 мес. назад | Торрент скачан:4 раза
Скачать  

08-08-2015 19:48 Красный галстук Скачать торрент  

Красный галстук
Страна: СССР
Производство: Союздетфильм

Жанр: детский
Год выпуска: 1948
Продолжительность: 01:06:36

Перевод: Не требуется
Cубтитры: нет
Оригинальная аудиодорожка: русский

Режиссер: Мария Сауц, Владимир Сухобоков

В ролях:
Александр Соколов, Ирина Начинкина, Слава Котов, Анатолий Ганичев, Александр Хвыля, Галина Степанова, Вера Окунева, Виталий Доронин, Николай Богатырев...
Полный список актёров

Описание:
В семье директора завода коммуниста Вишняка вместе с его детьми Мариной и Валерием воспитывается приемный сын Шура Бадекин, отец которого погиб на фронте. Дети хорошо учатся, дружат между собой. Однако в характере Валерия все больше проявляются себялюбие, эгоизм, заносчивость. Однажды отец заметил, что Валерий перестал носить пионерский галстук. Оказывается, подросток отказался выполнить поручение отряда и сам снял с себя галстук. На совете отряда Шура Бадекин осудил поведение друга, но его поведение Валерий расценил как предательство…

Источник: DVD9 R5
Качество видео: DVDRip
Формат видео: AVI
Видео кодек: XviD
Аудио кодек: MP3
Видео: 688x512 (4:3), 25 fps, XviD ~ 1437 kbps avg, 0.163 bit/pixel
Аудио: 48 kHz, MP3 2.0, 128 kbps

Раздача от:
Общее
Полное имя : Krasnyy.galstuk.1948.DVDRip-745_[New-team]_by_AVP_Studio.avi
Формат : AVI
Формат/Информация : Audio Video Interleave
Размер файла : 745 Мбайт
Продолжительность : 1 ч. 6 м.
Общий поток : 1575 Кбит/сек
Программа кодирования : VirtualDubMod 1.5.10.3 | www.virtualdub-fr.org || (build 2550/release)
Библиотека кодирования : VirtualDubMod build 2550/release

Видео
Идентификатор : 0
Формат : MPEG-4 Visual
Профиль формата : Advanced Simple@L5
Параметр BVOP формата : 1
Параметр QPel формата : Нет
Параметр GMC формата : Без точки перехода
Параметр матрицы формата : Выборочная
Идентификатор кодека : XVID
Идентификатор кодека/Подсказка : XviD
Продолжительность : 1 ч. 6 м.
Битрейт : 1437 Кбит/сек
Ширина : 688 пикселей
Высота : 512 пикселей
Соотношение сторон : 4:3
Частота кадров : 25,000 кадров/сек
Цветовое пространство : YUV
Субдискретизация насыщенности : 4:2:0
Битовая глубина : 8 бит
Тип развёртки : Прогрессивная
Метод сжатия : С потерями
Бит/(Пиксели*Кадры) : 0.163
Размер потока : 680 Мбайт (91%)
Библиотека кодирования : XviD 73

Аудио
Идентификатор : 1
Формат : MPEG Audio
Версия формата : Version 1
Профиль формата : Layer 3
Идентификатор кодека : 55
Идентификатор кодека/Подсказка : MP3
Продолжительность : 1 ч. 6 м.
Вид битрейта : Постоянный
Битрейт : 128 Кбит/сек
Каналы : 2 канала
Частота : 48,0 КГц
Метод сжатия : С потерями
Размер потока : 60,6 Мбайт (8%)
Выравнивание : Соединение по промежуткам
Продолжительность промежутка : 40 мс. (1,00 видеокадр)
Время предзагрузки промежутка : 504 мс.
Библиотека кодирования : LAME3.99r
Настройки программы : -m s -V 4 -q 2 -lowpass 17 -b 128
pb.wtf



Скачать Красный галстук через торрент http://s019.radikal.ru/i632/1508/f6/df1b60d196d4.png Скачать фильм Красный галстук через торрент бесплантно в хорошем качестве Описание:В семье директора завода коммуниста Вишняка вместе с его детьми Мариной и Валерием воспитывается приемный сын Шура Бадекин, отец ... 10 10 1
Торрент: Зарегистрирован [2015-08-08 19:48] · скачан: 4 раз
Статус: √ проверено
Размер: 745 MB
Как cкачать? Как скачать Красный галстук через торрент | qTorrent

% Раздел Тема Автор DL S | L
Кино СССР [ 1.09 GB ] Красный галстук [1948 СССР детский DVDRip-AVC от AVP Studio] AVP Studio Скачать
1 | 0
Кино СССР [ 1.09 GB ] Красный галстук [1948 СССР детский DVDRip от AVP Studio] AVP Studio Скачать
1 | 0


>> Регистрируемся здесь <<






Отзывы и комментарии о схеме читаем и пишем здесь: ---> Отзывы и комментарии о схеме

Новые благодарочки в телеграм довольных пользователей:
скриншот   скриншот   скриншот   скриншот   скриншот
    Дорогой пользователь! Огромная просьба, поблагодарите релизера, оцените раздачу и оставьте свои комментарий, если Вы скачали Красный галстук через торрент бесплатно! Внесите свою лепту в развитие PiratBit!
    Комментировать посты могут только пользователи прошедшие не сложную регистрацию
    Показать сообщения:    

    Красный галстук через торрент
    Скачать бесплатно Красный галстук
    Красный галстук скачать торрент
    Красный галстук смотреть онлайн
    Cкачать фильм Красный галстук бесплатно
    Красный галстук скачать торрент в хорошем качестве
    Красный галстук смотреть онлайн бесплатно в хорошем качестве


    Вы не можете начинать темы
    Вы не можете отвечать на сообщения
    Вы не можете редактировать свои сообщения
    Вы не можете удалять свои сообщения
    Вы не можете голосовать в опросах
    Вы не можете прикреплять файлы к сообщениям
    Вы можете скачивать файлы