Присоединяйтесь к нам в Telegram!, здесь всегда актуальный адрес сайта, оперативная поддержка и многое другое!!

>

5.9

iTunes

7.4

iTunes

9.4

1 сезон

1

7.4

2 сезон

7.2

iTunes

7.3

1 сезон

13

6.1

iTunes

8.3

GOG

30

ULTIMATE

pack

9.9

Лицензия

ВАЖНО

ИГРА 18+

pack

7.3

RePack

MK11

7.7

RePack

jed

7.8

RePack

fifa19

8.5

RePack

RDR2

RePack

NEED FOR SPEED™ PAYBACK

5 сезон

9 сезон

Бесстыжие 9 сезон

Все сериалы

все сериалы на PB.wtf

RePack

FAR CRY 5

Anonymous, добрый день, мы катастрофически не успеваем собрать деньги на оплату серверов, помогите нам пожалуйста 5,10,15р., для нас важна любая помощь . В качестве благодарности мы отключим Вам всю рекламу на сайте (укажите свой ник в строку Ваше имя)!

×
  
Magnet ссылка

Запрещённое музыкальное видео / Uncensored Music Videos vol.4 [2015 г., Adult music clips, House, Dance ,Rap, Rock, Pop..., WEB-DLRip 720p, Оригинал] pb.wtf

Запрещённое музыкальное видео через торрент pb.wtf

Размер: 2.73 GB | Добавлен: 6 лет 3 мес. назад | Торрент скачан:831 раз
Смотреть онлайн Запрещённое музыкальное видео | Скачать    Ребята, помогите собрать деньги на оплату серверов!!!

09-08-2015 06:10 Запрещённое музыкальное видео Скачать торрент  

Запрещённое музыкальное видео / Uncensored Music Videos vol.4
Год выпуска: 2015
Страна: All World
Жанр: Adult music clips, House, Dance ,Rap, Rock, Pop...
Продолжительность: 02:30:02
Перевод: Оригинал

Описание:
Четвёртая часть клипов (не очень так сказать разрекламированных....)..."Искусство-это не то, что вы видите, это то, что ты заставляешь других посмотреть." - Санкар Salvady
01. ZZ Top - Ko Ko Blue…
02. Sorrow - Paramount
03. De Stan Valen - Vampiras in the Night
04. Batman by Razoomovsky Andrey
05. Korrozia Metalla - 666 Likes
06. Uh Oh - It is your birthday
07. Stan Valen - Psychotronic Blue
08. Mattia Corso - Venezia Rivelata
09. BHYPE feat. 2xBobbi - Bass Mid Treble
10. Devendra Banhart - Director's Cut
11. Jerker Osterlind - Dystopie de corps puisque
12. Free Ride - Hellride…
13. Tussed - Woulg (Flux)
14. Uncoiling - Cilt (Alchemy chrysopoea)
15. Billy Idol - Body snatcher
16. Skepta - All over the house (xxx)
17. Godess Cheyenne - Biters Hold On
18. Randy Michael & The Sharp - Dressed Lads The Face
19. Biters - So Many Nights
20. ZZ Top - Back Door Love Affair
21. Megan Thomas and Go Dreamer - Stay Tight
22. PLS PLS - Cocaine
23. Blackfoot Gypsies - Under My Skin
24. GUN PARTY - Nothing Like A Sheep To Make You Feel Like A Wolf
25. Hogjaw - Gitsum
26. Astroglider - I'm Afraid it Is(Listen feel love)
27. Jerker Osterlind - Scumasphyxiation
28. Стриптиз на МотоРодня Paty 2010
29. MALEFIC TIME SOUM
30. ROCK FUCK DANCE - Pillow Fight
31. Quba - Bawszilla
32. Scratch Massive - Take Me There (feat. Jimmy Somerville)
33. The Booze - Wild One
34. Vito Romeo - Emily
35. Sleepy Brown - Choosen featuring Big Rube
Качество: WEB-DLRip 720p
Видео: AVC, 1280x720,1920x1080 (16:9), 23.976 fps, 2 445 Kbps (0.111 bit/pixel)
Аудио#1: AAC LC, 48.0 KHz, 2 ch, 160-256Kbps, VBR
скриншот   скриншот   скриншот   скриншот   скриншот   скриншот  
скриншот   скриншот   скриншот   скриншот   скриншот   скриншот  

Общее
Полное имя : C:\Раздача\Клипы\Uncensored Music Videos vol.4\03. De Stan Valen - Vampiras in the Night.mp4
Формат : MPEG-4
Профиль формата : Base Media / Version 2
Идентификатор кодека : mp42
Размер файла : 67,1 Мбайт
Продолжительность : 3 м. 35 с.
Режим общего битрейта : Переменный
Общий поток : 2609 Кбит/сек
Дата кодирования : UTC 2015-06-16 16:56:34
Дата пометки : UTC 2015-06-16 16:56:34

Видео
Идентификатор : 1
Формат : AVC
Формат/Информация : Advanced Video Codec
Профиль формата : High@L3.1
Параметр CABAC формата : Да
Параметр ReFrames формата : 4 кадра
Идентификатор кодека : avc1
Идентификатор кодека/Информация : Advanced Video Coding
Продолжительность : 3 м. 35 с.
Битрейт : 2445 Кбит/сек
Ширина : 1280 пикселей
Высота : 720 пикселей
Соотношение сторон : 16:9
Режим частоты кадров : Постоянный
Частота кадров : 23,976 кадра/сек
Цветовое пространство : YUV
Субдискретизация насыщенности : 4:2:0
Битовая глубина : 8 бит
Тип развёртки : Прогрессивная
Бит/(Пиксели*Кадры) : 0.111
Размер потока : 62,9 Мбайт (94%)
Библиотека кодирования : x264 core 144 r11 40bb568
Настройки программы : cabac=1 / ref=3 / deblock=1:0:0 / analyse=0x3:0x113 / me=hex / subme=7 / psy=1 / psy_rd=1.00:0.00 / mixed_ref=1 / me_range=16 / chroma_me=1 / trellis=1 / 8x8dct=1 / cqm=0 / deadzone=21,11 / fast_pskip=1 / chroma_qp_offset=-2 / threads=48 / lookahead_threads=5 / sliced_threads=0 / nr=0 / decimate=1 / interlaced=0 / bluray_compat=0 / stitchable=1 / constrained_intra=0 / bframes=3 / b_pyramid=2 / b_adapt=1 / b_bias=0 / direct=1 / weightb=1 / open_gop=0 / weightp=2 / keyint=infinite / keyint_min=23 / scenecut=40 / intra_refresh=0 / rc_lookahead=40 / rc=crf / mbtree=1 / crf=20.0 / qcomp=0.60 / qpmin=5 / qpmax=69 / qpstep=4 / vbv_maxrate=2750 / vbv_bufsize=7500 / crf_max=0.0 / nal_hrd=none / filler=0 / ip_ratio=1.40 / aq=1:1.00
Дата кодирования : UTC 2015-06-16 16:56:34
Дата пометки : UTC 2015-06-16 16:56:34

Аудио
Идентификатор : 2
Формат : AAC
Формат/Информация : Advanced Audio Codec
Профиль формата : LC
Идентификатор кодека : 40
Продолжительность : 3 м. 35 с.
Вид битрейта : Переменный
Битрейт : 160 Кбит/сек
Каналы : 2 канала
Расположение каналов : Front: L R
Частота : 48,0 КГц
Метод сжатия : С потерями
Размер потока : 4,12 Мбайт (6%)
Дата кодирования : UTC 2015-06-16 16:56:34
Дата пометки : UTC 2015-06-16 16:56:34

Общее
Полное имя : C:\Раздача\Клипы\Uncensored Music Videos vol.4\27. Jerker Osterlind - Scumasphyxiation.mp4
Формат : MPEG-4
Профиль формата : Base Media / Version 2
Идентификатор кодека : mp42
Размер файла : 118 Мбайт
Продолжительность : 3 м. 58 с.
Режим общего битрейта : Переменный
Общий поток : 4153 Кбит/сек
Дата кодирования : UTC 2015-06-13 13:27:50
Дата пометки : UTC 2015-06-13 13:27:50

Видео
Идентификатор : 1
Формат : AVC
Формат/Информация : Advanced Video Codec
Профиль формата : High@L4.0
Параметр CABAC формата : Да
Параметр ReFrames формата : 4 кадра
Параметр GOP формата : M=4, N=72
Идентификатор кодека : avc1
Идентификатор кодека/Информация : Advanced Video Coding
Продолжительность : 3 м. 58 с.
Битрейт : 3894 Кбит/сек
Ширина : 1920 пикселей
Высота : 1080 пикселей
Соотношение сторон : 16:9
Режим частоты кадров : Постоянный
Частота кадров : 24,000 кадра/сек
Цветовое пространство : YUV
Субдискретизация насыщенности : 4:2:0
Битовая глубина : 8 бит
Тип развёртки : Прогрессивная
Бит/(Пиксели*Кадры) : 0.078
Размер потока : 110 Мбайт (94%)
Библиотека кодирования : x264 core 146 r16 121396c
Настройки программы : cabac=1 / ref=3 / deblock=1:0:0 / analyse=0x3:0x113 / me=hex / subme=7 / psy=1 / psy_rd=1.00:0.00 / mixed_ref=1 / me_range=16 / chroma_me=1 / trellis=1 / 8x8dct=1 / cqm=0 / deadzone=21,11 / fast_pskip=1 / chroma_qp_offset=-2 / threads=84 / lookahead_threads=8 / sliced_threads=0 / nr=0 / decimate=1 / interlaced=0 / bluray_compat=0 / stitchable=1 / constrained_intra=0 / bframes=3 / b_pyramid=2 / b_adapt=1 / b_bias=0 / direct=1 / weightb=1 / open_gop=0 / weightp=2 / keyint=infinite / keyint_min=24 / scenecut=40 / intra_refresh=0 / rc_lookahead=40 / rc=crf / mbtree=1 / crf=20.0 / qcomp=0.60 / qpmin=5 / qpmax=69 / qpstep=4 / vbv_maxrate=4950 / vbv_bufsize=13500 / crf_max=0.0 / nal_hrd=none / filler=0 / ip_ratio=1.40 / aq=1:1.00
Дата кодирования : UTC 2015-06-13 13:27:50
Дата пометки : UTC 2015-06-13 13:27:50
Основные цвета : BT.709
Характеристики трансфера : BT.709
Коэффициенты матрицы : BT.709

Аудио
Идентификатор : 2
Формат : AAC
Формат/Информация : Advanced Audio Codec
Профиль формата : LC
Идентификатор кодека : 40
Продолжительность : 3 м. 58 с.
Вид битрейта : Переменный
Битрейт : 256 Кбит/сек
Каналы : 2 канала
Расположение каналов : Front: L R
Частота : 48,0 КГц
Метод сжатия : С потерями
Размер потока : 7,26 Мбайт (6%)
Дата кодирования : UTC 2015-06-13 13:27:50
Дата пометки : UTC 2015-06-13 13:27:50

pb.wtf



Скачать Запрещённое музыкальное видео через торрент https://pic.kartinco.top/images/11/dgfnt.jpg Скачать, смотреть онлайн Запрещённое музыкальное видео бесплантно в хорошем качестве Описание:Четвёртая часть клипов (не очень так сказать разрекламированных....)..."Искусство-это не то, что вы видите, это то, что ты ... 9.8 10 29
Info! Серебряная раздача, засчитывается только 50% скачанного.
Торрент: Зарегистрирован [2015-08-09 06:10] · скачан: 831 раз
Статус: √ проверено
Размер: 2.73 GB
Как cкачать? Как скачать Запрещённое музыкальное видео через торрент | UTorrent

28-11-2019 20:33  

Отключить всю рекламу на сайте

09-08-2015 07:13 Запрещённое музыкальное видео Скачать торрент  

О_о Бобылкина))pb.wtf



09-08-2015 12:51 Запрещённое музыкальное видео Скачать торрент  

pb.wtf



09-08-2015 15:07 Запрещённое музыкальное видео Скачать торрент  

а какая запрещенная черепаха )))) sarcasticpb.wtf



09-08-2015 21:24 Запрещённое музыкальное видео Скачать торрент  

Редкостная хрень. из всех клипов только один можно посмотреть.pb.wtf



24-08-2015 18:44 Запрещённое музыкальное видео Скачать торрент  

откуда вы таких страшных отбираете?))pb.wtf



    Дорогой пользователь! Огромная просьба, поблагодарите релизера, оцените раздачу и оставьте свои комментарий, если Вы скачали Запрещённое музыкальное видео через торрент бесплатно!
    Комментировать посты могут только пользователи прошедшие не сложную регистрацию
    Показать сообщения:    

    Запрещённое музыкальное видео через торрент
    Скачать бесплатно Запрещённое музыкальное видео
    Запрещённое музыкальное видео скачать торрент
    Запрещённое музыкальное видео смотреть онлайн
    Cкачать фильм Запрещённое музыкальное видео бесплатно
    Запрещённое музыкальное видео скачать торрент в хорошем качестве
    Запрещённое музыкальное видео смотреть онлайн бесплатно в хорошем качестве


    Вы не можете начинать темы
    Вы не можете отвечать на сообщения
    Вы не можете редактировать свои сообщения
    Вы не можете удалять свои сообщения
    Вы не можете голосовать в опросах
    Вы не можете прикреплять файлы к сообщениям
    Вы можете скачивать файлы