Всегда рабочее зеркало без VPN и Proxy просто перед .vidak.icu напиши любое слово или цифру, Пример http://y3c2.vidak.icu

MVO

2 сезон

1 сезон

1

1 сезон

iTunes

2 сезон

13

1 сезон

Deluxe

pack

Рекомендуем

Пиратка

30

ВАЖНО

RePack

MK11

RePack

jed

RePack

fifa19

RePack

RDR2

RePack

NEED FOR SPEED™ PAYBACK

Кинопоиск HD

6 сезон

 Острые козырьки 6 сезон

Все сериалы

все сериалы на PB.wtf

RePack

FAR CRY 5

Anonymous, нам критически не хватает 5601 руб. на оплату серверов и переферии за Апрель, помоги нам пожалуйста, вся надежда только на тебя. В благодарность мы отключим тебе всю рекламу на сайте!

×
  
Magnet ссылка

Сайлент Хилл: Дилогия / Silent Hill Dilogy (Кристоф Ганс, Майкл Дж. Бассетт) [2006-2012 г., ужасы, триллер, детектив, HDRip, Дубляж, Лицензия] pb.wtf

Сайлент Хилл: Дилогия через торрент pb.wtf

Размер: 3.61 GB | Добавлен: 6 лет 9 мес. назад | Торрент скачан:146 раз
Смотреть онлайн Сайлент Хилл: Дилогия | Скачать    Ребята, помогите собрать деньги на оплату серверов!!!

09-08-2015 14:19 Сайлент Хилл: Дилогия Скачать торрент  

Сайлент Хилл / Silent HillГод выпуска: 2006
Страна: Канада, Франция
Жанр: ужасы, детектив
Продолжительность: 02:05:19
Перевод: Дубляж, Лицензия
Субтитры: Нет

Режиссер: Кристоф Ганс
Продюссер: Дон Кармоди, Сэмюэл Хадида, Николас Бухриф
Сценарий: Роджер Эвери

Бюджет: $50 000 000
Премьера в мире: 21 апреля 2006



В ролях: Рада Митчелл, Шон Бин, Лори Холден, Дебора Кара Ангер, Ким Коутс, Таня Аллен, Элис Крайдж, Джоделль Ферланд, Коллин Уильямс, Рон Гэбриел

Описание: Молодая мать, отчаявшись найти лекарство от таинственного заболевания своей дочери Шэрон, отказывается отдать ее в психиатрическую лечебницу. Вместе с Шэрон она отправляется в Сайлент Хилл, город, название которого ее дочь постоянно твердит во сне. Несмотря на сопротивление мужа, Роуз убеждена, что найдет там ответы, в которых так нуждается. Но когда они подъезжают к заброшенному городу, на дороге появляется таинственная фигура, Роуз резко тормозит, и машина попадает в аварию… Придя в себя, она обнаруживает, что Шэрон исчезла… В компании упрямой женщины-полицейской из городка неподалеку Роуз отправляется на поиски своего ребенка в Сайлент Хилл, место, непохожее ни на одно другое: город покрыт туманом, его населяют странные, проклятые создания, и время от времени он погружается во Мрак, который буквально меняет все, к чему прикасается… В поисках дочери Роуз узнает об истории Сайлент Хилла, его пуританском прошлом, полном насилия, и причинах проклятия, висящего над городом. Она понимает, ее ребенок - лишь часть большой, ужасающей головоломки…

Качество: HDRip | BDRip 1080p
Формат: AVI
Видео кодек: XviD
Аудио кодек: AC3
Видео: 720x304 (2.37:1), 23.976 fps, XviD build 50 ~2065 kbps avg, 0.39 bit/pixel
Аудио: 48 kHz, AC3 Dolby Digital, 3/2 (L,C,R,l,r) + LFE ch, ~384 kbps


Автор рипа: Dean24





Общее
Полное имя : D:\Мои документы\Фильмы\Сайт\Silent.Hill.Dilogy\Silent.Hill.HDRip.avi
Формат : AVI
Формат/Информация : Audio Video Interleave
Профиль формата : OpenDML
Размер файла : 2,15 Гбайт
Продолжительность : 2 ч. 5 м.
Общий поток : 2457 Кбит/сек
Программа кодирования : VirtualDubMod 1.5.10.3 | (build 2550/release)
Библиотека кодирования : VirtualDubMod build 2550/release

Видео
Идентификатор : 0
Формат : MPEG-4 Visual
Профиль формата : Advanced Simple@L5
Параметр BVOP формата : 3
Параметр QPel формата : Нет
Параметр GMC формата : Без точки перехода
Параметр матрицы формата : Default (H.263)
Идентификатор кодека : XVID
Идентификатор кодека/Подсказка : XviD
Продолжительность : 2 ч. 5 м.
Битрейт : 2061 Кбит/сек
Ширина : 720 пикселей
Высота : 304 пикселя
Соотношение сторон : 2,35:1
Частота кадров : 23,976 кадра/сек
Цветовое пространство : YUV
Субдискретизация насыщенности : 4:2:0
Битовая глубина : 8 бит
Тип развёртки : Прогрессивная
Метод сжатия : С потерями
Бит/(Пиксели*Кадры) : 0.393
Размер потока : 1,80 Гбайт (84%)
Библиотека кодирования : XviD 1.2.1 (UTC 2008-12-04)

Аудио
Идентификатор : 1
Формат : AC-3
Формат/Информация : Audio Coding 3
Расширение режима : CM (complete main)
Параметр Endianness формата : Big
Идентификатор кодека : 2000
Продолжительность : 2 ч. 5 м.
Вид битрейта : Постоянный
Битрейт : 384 Кбит/сек
Каналы : 6 каналов
Расположение каналов : Front: L C R, Side: L R, LFE
Частота : 48,0 КГц
Битовая глубина : 16 бит
Метод сжатия : С потерями
Размер потока : 344 Мбайт (16%)
Выравнивание : Разделение по промежуткам
Продолжительность промежутка : 42 мс. (1,00 видеокадр)
Время предзагрузки промежутка : 500 мс.


Сайлент Хилл 2 / Silent Hill: RevelationГод выпуска: 2012
Страна: Франция, Канада
Жанр: ужасы, триллер, детектив
Продолжительность: 01:34:46
Перевод: Дубляж, Лицензия
Субтитры: Нет

Режиссер: Майкл Дж. Бассетт
Продюссер: Дон Кармоди, Сэмюэл Хадида, Хартли Горенштейн
Сценарий: Майкл Дж. Бассетт, Лорен Хадида

Бюджет: $20 000 000
Премьера в мире: 25 октября 2012



В ролях: Эделейд Клеменс, Кит Харингтон, Дебора Кара Ангер, Мартин Донован, Малкольм МакДауэлл, Кэрри-Энн Мосс, Шон Бин, Рада Митчелл, Роберто Кампанелла, Эрин Питт, Питер Аутербридж, Джефферсон Браун, Милтон Барнс, Хезер Маркс

Описание: Хизер терзается ночными кошмарами с одиннадцатилетнего возраста и вынуждена со своим отцом постоянно менять место жительства, скрываясь от таинственных сил. Накануне своего восемнадцатого дня рождения Хизер, вернувшись домой, обнаруживает, что её отец исчез. Единственное, что она нашла дома — нарисованный на стене оккультный символ с надписью «отправляйся в Сайлент-Хилл».

Качество: HDRip | BDRip 1080p
Формат: AVI
Видео кодек: XviD
Аудио кодек: AC3
Видео: 720x304 (2.37:1), 23.976 fps, XviD build 50 ~1811 kbps avg, 0.34 bit/pixel
Аудио#1: 48 kHz, AC3 Dolby Digital, 3/2 (L,C,R,l,r) + LFE ch, ~384 kbps


Автор рипа: Dean24





Общее
Полное имя : D:\Мои документы\Фильмы\Сайт\Silent.Hill.Dilogy\Silent.Hill.2.Revelation.HDRip.avi
Формат : AVI
Формат/Информация : Audio Video Interleave
Размер файла : 1,46 Гбайт
Продолжительность : 1 ч. 34 м.
Общий поток : 2205 Кбит/сек
Программа кодирования : VirtualDubMod 1.5.10.3 | (build 2550/release)
Библиотека кодирования : VirtualDubMod build 2550/release

Видео
Идентификатор : 0
Формат : MPEG-4 Visual
Профиль формата : Advanced Simple@L5
Параметр BVOP формата : 3
Параметр QPel формата : Нет
Параметр GMC формата : Без точки перехода
Параметр матрицы формата : Default (H.263)
Идентификатор кодека : XVID
Идентификатор кодека/Подсказка : XviD
Продолжительность : 1 ч. 34 м.
Битрейт : 1812 Кбит/сек
Ширина : 720 пикселей
Высота : 304 пикселя
Соотношение сторон : 2,35:1
Частота кадров : 23,976 кадра/сек
Цветовое пространство : YUV
Субдискретизация насыщенности : 4:2:0
Битовая глубина : 8 бит
Тип развёртки : Прогрессивная
Метод сжатия : С потерями
Бит/(Пиксели*Кадры) : 0.345
Размер потока : 1,20 Гбайт (82%)
Библиотека кодирования : XviD 1.2.1 (UTC 2008-12-04)

Аудио
Идентификатор : 1
Формат : AC-3
Формат/Информация : Audio Coding 3
Расширение режима : CM (complete main)
Параметр Endianness формата : Big
Идентификатор кодека : 2000
Продолжительность : 1 ч. 34 м.
Вид битрейта : Постоянный
Битрейт : 384 Кбит/сек
Каналы : 6 каналов
Расположение каналов : Front: L C R, Side: L R, LFE
Частота : 48,0 КГц
Битовая глубина : 16 бит
Метод сжатия : С потерями
Размер потока : 260 Мбайт (17%)
Выравнивание : Разделение по промежуткам
Продолжительность промежутка : 42 мс. (1,00 видеокадр)
Время предзагрузки промежутка : 500 мс.

pb.wtf



Скачать Сайлент Хилл: Дилогия через торрент http://i71.fastpic.ru/big/2015/0809/38/ab206d19c1b7d8f43ea8194fc061fa38.png Скачать, смотреть онлайн Сайлент Хилл: Дилогия бесплантно в хорошем качестве Описание: Молодая мать, отчаявшись найти лекарство от таинственного заболевания своей дочери Шэрон, отказывается отдать ее в ... 10 10 23
Info! Золотая раздача, скачанное не засчитывается.
Торрент: Зарегистрирован [2015-08-09 14:19] · скачан: 146 раз
Статус: √ проверено
Размер: 3.61 GB
Как cкачать? Как скачать Сайлент Хилл: Дилогия через торрент | UTorrent

% Раздел Тема Автор DL S | L
Фильмы 2012 [ 2.92 GB ] Сайлент Хилл: Дилогия / Silent Hill: Dilogy [2006-2012 г BDRip-AVC] DUB Rzhavec Скачать
1 | 0

28-11-2019 20:33  

Отключить всю рекламу на сайте

07-12-2015 11:00 Сайлент Хилл: Дилогия Скачать торрент  

На любителя.pb.wtf



    Дорогой пользователь! Огромная просьба, поблагодарите релизера, оцените раздачу и оставьте свои комментарий, если Вы скачали Сайлент Хилл: Дилогия через торрент бесплатно!
    Комментировать посты могут только пользователи прошедшие не сложную регистрацию
    Показать сообщения:    

    Сайлент Хилл: Дилогия через торрент
    Скачать бесплатно Сайлент Хилл: Дилогия
    Сайлент Хилл: Дилогия скачать торрент
    Сайлент Хилл: Дилогия смотреть онлайн
    Cкачать фильм Сайлент Хилл: Дилогия бесплатно
    Сайлент Хилл: Дилогия скачать торрент в хорошем качестве
    Сайлент Хилл: Дилогия смотреть онлайн бесплатно в хорошем качестве


    Вы не можете начинать темы
    Вы не можете отвечать на сообщения
    Вы не можете редактировать свои сообщения
    Вы не можете удалять свои сообщения
    Вы не можете голосовать в опросах
    Вы не можете прикреплять файлы к сообщениям
    Вы можете скачивать файлы