Доктор Стрэндж

Лицензия

Добыча

Дубляж

Уэнсдэй

1 сезон

Тор

Дубляж

В эфире

Дубляж

Там, где раки поют

MVO

Властелин колец

1 сезон

Deluxe

pack

Рекомендуем

30

Пиратка

ВАЖНО

ВАЖНО

Ghostwire

Пиратка

jed

RePack

nioh2

RePack

RDR2

RePack

NEED FOR SPEED™ PAYBACK

RePack

скачать торрент

Кинопоиск HD

Острые козырьки 6 сезон

6 сезон

FAR CRY 6

RePack

скачать торрент

Лицензия

скачать торрент

MVO

1

1 сезон

скачать торрент

1 сезон

скачать торрент

Лицензия

  

Леон / Leon [2-in-1: Theatrical & Director's Cut] (Люк Бессон) [1994,Триллер, Драма, Криминал , Blu-ray, Многоголосый закадровый]

Леон через торрент pb.wtf

Размер: 37.97 GB | Добавлен: 7 лет 3 мес. назад | Торрент скачан:10 раз
Смотреть онлайн | Скачать   

09-08-2015 22:38 Леон Скачать торрент  

Леон / Leon

«Вы не можете остановить того, кого не видно»
Год выпуска: 1994
Страна: Франция
Жанр: Триллер, Драма, Криминал
Продолжительность: 02:12:51 | 01:50:17
Перевод: Профессиональный многоголосый
Вид субтитров: вшитые, отключаемые
Язык субтитров: русский, немецкий

Режиссер: Люк Бессон

В ролях: Жан Рено, Гари Олдман, Натали Портман, Дэнни Айелло, Питер Эппел, Уилли Уан Блад, Дон Крич, Кейт А. Гласко, Рэндольф Скотт, Майкл Бадалукко

Описание: Профессиональный убийца Леон, не знающий пощады и жалости, знакомится со своей очаровательной соседкой Матильдой, семью которой расстреливают полицейские, замешанные в торговле наркотиками. Благодаря этому знакомству он впервые испытывает чувство любви, но... как коротка жизнь профессионального убийцы.




Возраст: R лицам до 17 лет обязательно присутствие взрослого

Качество: Blu-ray
Формат: BDMV
Видео кодек: AVC
Аудио кодек: DTS-HD / DTS
Видео: MPEG-4 AVC Video / 24903 kbps / 1080p / 23,976 fps / 16:9 / High Profile 4.1
Аудио#1: German / DTS-HD High-Res Audio / 7.1 / 48 kHz / 2814 kbps / 24-bit
Аудио#2: English / DTS-HD High-Res Audio / 7.1 / 48 kHz / 2814 kbps / 24-bit
Аудио#3: Russian / DTS / 5.1 / 48 kHz / 768 kbps / 24-bit

Код:

Disc Title:     Leon [2-in-1 Theatrical & Director's Cut] (1994) Blu-ray
Disc Size:      40 770 193 426 bytes
Protection:     AACS
BD-Java:        No
Extras:         50Hz Content
BDInfo:         0.5.8

Notes:

BDINFO HOME:
  Cinema Squid
    http://www.cinemasquid.com/blu-ray/tools/bdinfo

INCLUDES FORUMS REPORT FOR:
  AVS Forum Blu-ray Audio and Video Specifications Thread
    http://www.avsforum.com/avs-vb/showthread.php?t=1155731

********************
PLAYLIST: 00001.MPLS
********************

<--- BEGIN FORUMS PASTE --->

                                                                                                                Total   Video
Title                                                           Codec   Length  Movie Size      Disc Size       Bitrate Bitrate Main Audio Track                          Secondary Audio Track
-----                                                           ------  ------- --------------  --------------  ------- ------- ------------------                        ---------------------
00001.MPLS                                                      AVC     2:12:51 33 168 181 248  40 770 193 426  33,29   24,90   DTS-HD Hi-Res 7.1 2814Kbps (48kHz/24-bit)

DISC INFO:

Disc Title:     Leon [2-in-1 Theatrical & Director's Cut] (1994) Blu-ray
Disc Size:      40 770 193 426 bytes
Protection:     AACS
BD-Java:        No
Extras:         50Hz Content
BDInfo:         0.5.8

PLAYLIST REPORT:

Name:                   00001.MPLS
Length:                 2:12:51.380 (h:m:s.ms)
Size:                   33 168 181 248 bytes
Total Bitrate:          33,29 Mbps

VIDEO:

Codec                   Bitrate             Description
-----                   -------             -----------
MPEG-4 AVC Video        24903 kbps          1080p / 23,976 fps / 16:9 / High Profile 4.1

AUDIO:

Codec                           Language        Bitrate         Description
-----                           --------        -------         -----------
DTS-HD High-Res Audio           German          2814 kbps       7.1 / 48 kHz / 2814 kbps / 24-bit (DTS Core: 5.1 / 48 kHz / 1509 kbps / 24-bit)
DTS-HD High-Res Audio           English         2814 kbps       7.1 / 48 kHz / 2814 kbps / 24-bit (DTS Core: 5.1 / 48 kHz / 1509 kbps / 24-bit)
DTS Audio                       Russian         768 kbps        5.1 / 48 kHz / 768 kbps / 24-bit

SUBTITLES:

Codec                           Language        Bitrate         Description
-----                           --------        -------         -----------
Presentation Graphics           Russian         16,370 kbps
Presentation Graphics           German          9,991 kbps
Presentation Graphics           German          0,196 kbps

FILES:

Name            Time In         Length          Size            Total Bitrate
----            -------         ------          ----            -------------
00005.M2TS      0:00:00.000     0:45:22.052     11 368 323 072  33 411
00006.M2TS      0:45:22.052     0:01:04.397     274 360 320     34 083
00002.M2TS      0:46:26.450     0:22:40.692     5 685 233 664   33 426
00008.M2TS      1:09:07.143     0:19:40.220     4 930 037 760   33 418
00058.M2TS      1:28:47.363     0:08:57.954     2 250 596 352   33 469
00059.M2TS      1:37:45.317     0:06:04.614     1 526 894 592   33 502
00062.M2TS      1:43:49.932     0:29:00.447     7 132 710 912   32 786
00075.M2TS      2:12:50.379     0:00:01.000     24 576          196

CHAPTERS:

Number          Time In         Length          Avg Video Rate  Max 1-Sec Rate  Max 1-Sec Time  Max 5-Sec Rate  Max 5-Sec Time  Max 10Sec Rate  Max 10Sec Time  Avg Frame Size  Max Frame Size  Max Frame Time
------          -------         ------          --------------  --------------  --------------  --------------  --------------  --------------  --------------  --------------  --------------  --------------
1               0:00:00.000     0:01:48.107     17 643 kbps     34 906 kbps     00:01:44.687    30 669 kbps     00:01:41.059    29 103 kbps     00:00:55.513    91 949 bytes    483 778 bytes   00:01:43.978
2               0:01:48.107     0:08:18.456     24 280 kbps     37 675 kbps     00:02:54.883    33 810 kbps     00:07:01.629    32 509 kbps     00:06:49.117    126 585 bytes   436 028 bytes   00:06:17.126
3               0:10:06.564     0:12:32.418     24 021 kbps     40 698 kbps     00:10:18.951    36 016 kbps     00:18:00.662    32 312 kbps     00:18:00.871    125 237 bytes   539 355 bytes   00:18:53.715
4               0:22:38.982     0:11:15.466     27 393 kbps     40 682 kbps     00:26:30.505    35 220 kbps     00:24:39.644    32 377 kbps     00:33:27.755    142 816 bytes   582 118 bytes   00:33:39.976
5               0:33:54.449     0:09:47.837     25 541 kbps     36 867 kbps     00:40:12.368    31 750 kbps     00:40:09.824    31 063 kbps     00:35:37.677    133 157 bytes   469 577 bytes   00:40:14.078
6               0:43:42.286     0:09:35.241     25 203 kbps     39 639 kbps     00:51:55.070    35 340 kbps     00:45:24.179    34 363 kbps     00:45:23.303    131 397 bytes   565 861 bytes   00:50:06.503
7               0:53:17.527     0:10:33.799     25 265 kbps     39 407 kbps     00:56:15.163    35 083 kbps     01:02:31.747    33 144 kbps     00:56:11.576    131 719 bytes   509 454 bytes   01:02:37.795
8               1:03:51.327     0:24:36.516     24 921 kbps     39 214 kbps     01:20:59.187    36 223 kbps     01:18:27.202    34 497 kbps     01:18:22.781    129 928 bytes   541 428 bytes   01:06:43.499
9               1:28:27.844     0:15:01.358     25 081 kbps     36 917 kbps     01:29:51.219    32 769 kbps     01:38:11.802    32 320 kbps     01:38:07.548    130 760 bytes   379 142 bytes   01:38:08.424
10              1:43:29.202     0:09:43.124     26 895 kbps     42 868 kbps     01:48:57.697    36 726 kbps     01:47:12.843    34 313 kbps     01:46:04.191    140 218 bytes   582 933 bytes   01:46:09.029
11              1:53:12.327     0:07:42.378     28 153 kbps     40 834 kbps     02:00:49.033    34 948 kbps     02:00:45.988    32 997 kbps     02:00:41.400    146 775 bytes   512 726 bytes   02:00:47.657
12              2:00:54.705     0:11:55.673     19 975 kbps     42 387 kbps     02:02:08.154    34 743 kbps     02:02:05.943    33 364 kbps     02:06:25.536    104 141 bytes   583 141 bytes   02:07:19.548
13              2:12:50.379     0:00:01.001     75 kbps         0 kbps          00:00:00.000    0 kbps          00:00:00.000    0 kbps          00:00:00.000    407 bytes       2 428 bytes     02:12:51.129

STREAM DIAGNOSTICS:

File            PID             Type            Codec           Language                Seconds                 Bitrate                 Bytes           Packets
----            ---             ----            -----           --------                --------------          --------------          -------------   -----
00005.M2TS      4113 (0x1011)   0x1B            AVC                                     2721,969                25 017                  8 511 837 249   46 298 208
00005.M2TS      4352 (0x1100)   0x85            DTS-HD HR       deu (German)            2721,969                2 814                   957 484 136     5 614 246
00005.M2TS      4353 (0x1101)   0x85            DTS-HD HR       eng (English)           2721,969                2 814                   957 484 136     5 614 246
00005.M2TS      4354 (0x1102)   0x82            DTS             rus (Russian)           2721,969                755                     256 724 158     1 531 158
00005.M2TS      4608 (0x1200)   0x90            PGS             rus (Russian)           2721,969                16                      5 454 191       31 899
00005.M2TS      4609 (0x1201)   0x90            PGS             deu (German)            2721,969                15                      5 136 143       28 842
00005.M2TS      4610 (0x1202)   0x90            PGS             deu (German)            2721,969                0                       30 417          187
00006.M2TS      4113 (0x1011)   0x1B            AVC                                     64,314                  25 684                  206 483 580     1 123 096
00006.M2TS      4352 (0x1100)   0x85            DTS-HD HR       deu (German)            64,314                  2 818                   22 654 576      132 836
00006.M2TS      4353 (0x1101)   0x85            DTS-HD HR       eng (English)           64,314                  2 818                   22 654 576      132 836
00006.M2TS      4354 (0x1102)   0x82            DTS             rus (Russian)           64,314                  756                     6 074 228       36 228
00006.M2TS      4608 (0x1200)   0x90            PGS             rus (Russian)           64,314                  26                      206 682         1 210
00006.M2TS      4609 (0x1201)   0x90            PGS             deu (German)            64,314                  6                       47 815          267
00006.M2TS      4610 (0x1202)   0x90            PGS             deu (German)            64,314                  7                       54 217          316
00002.M2TS      4113 (0x1011)   0x1B            AVC                                     1360,568                25 034                  4 257 625 749   23 158 367
00002.M2TS      4352 (0x1100)   0x85            DTS-HD HR       deu (German)            1360,568                2 814                   478 623 880     2 806 430
00002.M2TS      4353 (0x1101)   0x85            DTS-HD HR       eng (English)           1360,568                2 814                   478 623 880     2 806 430
00002.M2TS      4354 (0x1102)   0x82            DTS             rus (Russian)           1360,568                755                     128 330 390     765 390
00002.M2TS      4608 (0x1200)   0x90            PGS             rus (Russian)           1360,568                19                      3 157 475       18 436
00002.M2TS      4609 (0x1201)   0x90            PGS             deu (German)            1360,568                10                      1 720 912       9 700
00002.M2TS      4610 (0x1202)   0x90            PGS             deu (German)            1360,568                0                       43 798          260
00008.M2TS      4113 (0x1011)   0x1B            AVC                                     1180,096                25 032                  3 692 554 944   20 084 756
00008.M2TS      4352 (0x1100)   0x85            DTS-HD HR       deu (German)            1180,096                2 814                   415 143 792     2 434 212
00008.M2TS      4353 (0x1101)   0x85            DTS-HD HR       eng (English)           1180,096                2 814                   415 143 792     2 434 212
00008.M2TS      4354 (0x1102)   0x82            DTS             rus (Russian)           1180,096                755                     111 309 876     663 876
00008.M2TS      4608 (0x1200)   0x90            PGS             rus (Russian)           1180,096                18                      2 680 122       15 773
00008.M2TS      4609 (0x1201)   0x90            PGS             deu (German)            1180,096                6                       866 418         4 853
00008.M2TS      4610 (0x1202)   0x90            PGS             deu (German)            1180,096                0                       7 842           50
00058.M2TS      4113 (0x1011)   0x1B            AVC                                     537,871                 25 084                  1 686 518 764   9 173 345
00058.M2TS      4352 (0x1100)   0x85            DTS-HD HR       deu (German)            537,871                 2 814                   189 228 368     1 109 548
00058.M2TS      4353 (0x1101)   0x85            DTS-HD HR       eng (English)           537,871                 2 814                   189 228 368     1 109 548
00058.M2TS      4354 (0x1102)   0x82            DTS             rus (Russian)           537,871                 755                     50 736 604      302 604
00058.M2TS      4608 (0x1200)   0x90            PGS             rus (Russian)           537,871                 17                      1 135 241       6 659
00058.M2TS      4609 (0x1201)   0x90            PGS             deu (German)            537,871                 5                       337 048         1 883
00058.M2TS      4610 (0x1202)   0x90            PGS             deu (German)            537,871                 1                       41 387          247
00059.M2TS      4113 (0x1011)   0x1B            AVC                                     364,531                 25 115                  1 144 381 358   6 224 591
00059.M2TS      4352 (0x1100)   0x85            DTS-HD HR       deu (German)            364,531                 2 815                   128 254 616     752 026
00059.M2TS      4353 (0x1101)   0x85            DTS-HD HR       eng (English)           364,531                 2 815                   128 254 616     752 026
00059.M2TS      4354 (0x1102)   0x82            DTS             rus (Russian)           364,531                 755                     34 388 098      205 098
00059.M2TS      4608 (0x1200)   0x90            PGS             rus (Russian)           364,531                 19                      857 685         5 055
00059.M2TS      4609 (0x1201)   0x90            PGS             deu (German)            364,531                 6                       267 200         1 503
00059.M2TS      4610 (0x1202)   0x90            PGS             deu (German)            364,531                 0                       7 842           50
00062.M2TS      4113 (0x1011)   0x1B            AVC                                     1740,322                24 430                  5 314 487 509   28 907 556
00062.M2TS      4352 (0x1100)   0x85            DTS-HD HR       deu (German)            1740,322                2 814                   612 202 584     3 589 674
00062.M2TS      4353 (0x1101)   0x85            DTS-HD HR       eng (English)           1740,322                2 814                   612 202 584     3 589 674
00062.M2TS      4354 (0x1102)   0x82            DTS             rus (Russian)           1740,322                755                     164 144 996     978 996
00062.M2TS      4608 (0x1200)   0x90            PGS             rus (Russian)           1740,322                13                      2 820 377       16 417
00062.M2TS      4609 (0x1201)   0x90            PGS             deu (German)            1740,322                7                       1 579 834       8 854
00062.M2TS      4610 (0x1202)   0x90            PGS             deu (German)            1740,322                0                       9 692           60
00075.M2TS      4113 (0x1011)   0x1B            AVC                                     0,876                   108                     11 779          72

<---- END FORUMS PASTE ---->

QUICK SUMMARY:

Disc Title: Leon [2-in-1 Theatrical & Director's Cut] (1994) Blu-ray
Disc Size: 40 770 193 426 bytes
Protection: AACS
BD-Java: No
Playlist: 00001.MPLS
Size: 33 168 181 248 bytes
Length: 2:12:51.380
Total Bitrate: 33,29 Mbps
Video: MPEG-4 AVC Video / 24903 kbps / 1080p / 23,976 fps / 16:9 / High Profile 4.1
Audio: German / DTS-HD High-Res Audio / 7.1 / 48 kHz / 2814 kbps / 24-bit (DTS Core: 5.1 / 48 kHz / 1509 kbps / 24-bit)
Audio: English / DTS-HD High-Res Audio / 7.1 / 48 kHz / 2814 kbps / 24-bit (DTS Core: 5.1 / 48 kHz / 1509 kbps / 24-bit)
Audio: Russian / DTS Audio / 5.1 / 48 kHz / 768 kbps / 24-bit
Subtitle: Russian / 16,370 kbps
Subtitle: German / 9,991 kbps
Subtitle: German / 0,196 kbps

********************
PLAYLIST: 00002.MPLS
********************

<--- BEGIN FORUMS PASTE --->

                                                                                                                Total   Video
Title                                                           Codec   Length  Movie Size      Disc Size       Bitrate Bitrate Main Audio Track                          Secondary Audio Track
-----                                                           ------  ------- --------------  --------------  ------- ------- ------------------                        ---------------------
00002.MPLS                                                      AVC     1:50:18 27 521 679 360  40 770 193 426  33,27   24,88   DTS-HD Hi-Res 7.1 2814Kbps (48kHz/24-bit)

DISC INFO:

Disc Title:     Leon [2-in-1 Theatrical & Director's Cut] (1994) Blu-ray
Disc Size:      40 770 193 426 bytes
Protection:     AACS
BD-Java:        No
Extras:         50Hz Content
BDInfo:         0.5.8

PLAYLIST REPORT:

Name:                   00002.MPLS
Length:                 1:50:18.153 (h:m:s.ms)
Size:                   27 521 679 360 bytes
Total Bitrate:          33,27 Mbps

VIDEO:

Codec                   Bitrate             Description
-----                   -------             -----------
MPEG-4 AVC Video        24884 kbps          1080p / 23,976 fps / 16:9 / High Profile 4.1

AUDIO:

Codec                           Language        Bitrate         Description
-----                           --------        -------         -----------
DTS-HD High-Res Audio           German          2814 kbps       7.1 / 48 kHz / 2814 kbps / 24-bit (DTS Core: 5.1 / 48 kHz / 1509 kbps / 24-bit)
DTS-HD High-Res Audio           English         2814 kbps       7.1 / 48 kHz / 2814 kbps / 24-bit (DTS Core: 5.1 / 48 kHz / 1509 kbps / 24-bit)
DTS Audio                       Russian         768 kbps        5.1 / 48 kHz / 768 kbps / 24-bit

SUBTITLES:

Codec                           Language        Bitrate         Description
-----                           --------        -------         -----------
Presentation Graphics           Russian         15,805 kbps
Presentation Graphics           German          10,927 kbps
Presentation Graphics           German          0,180 kbps

FILES:

Name            Time In         Length          Size            Total Bitrate
----            -------         ------          ----            -------------
00005.M2TS      0:00:00.000     0:45:22.052     11 368 323 072  33 411
00007.M2TS      0:45:22.052     0:00:43.543     186 783 744     34 317
00002.M2TS      0:46:05.596     0:22:40.692     5 685 233 664   33 426
00061.M2TS      1:08:46.288     0:02:39.617     671 766 528     33 669
00058.M2TS      1:11:25.906     0:08:57.954     2 250 596 352   33 469
00060.M2TS      1:20:23.860     0:00:52.844     226 240 512     34 250
00062.M2TS      1:21:16.705     0:29:00.447     7 132 710 912   32 786
00075.M2TS      1:50:17.152     0:00:01.000     24 576          196

CHAPTERS:

Number          Time In         Length          Avg Video Rate  Max 1-Sec Rate  Max 1-Sec Time  Max 5-Sec Rate  Max 5-Sec Time  Max 10Sec Rate  Max 10Sec Time  Avg Frame Size  Max Frame Size  Max Frame Time
------          -------         ------          --------------  --------------  --------------  --------------  --------------  --------------  --------------  --------------  --------------  --------------
1               0:00:00.000     0:01:48.107     17 643 kbps     34 906 kbps     00:01:44.687    30 669 kbps     00:01:41.059    29 103 kbps     00:00:55.513    91 949 bytes    483 778 bytes   00:01:43.978
2               0:01:48.107     0:08:18.456     24 280 kbps     37 675 kbps     00:02:54.883    33 810 kbps     00:07:01.629    32 509 kbps     00:06:49.117    126 585 bytes   436 028 bytes   00:06:17.126
3               0:10:06.564     0:12:32.418     24 021 kbps     40 698 kbps     00:10:18.951    36 016 kbps     00:18:00.662    32 312 kbps     00:18:00.871    125 237 bytes   539 355 bytes   00:18:53.715
4               0:22:38.982     0:11:15.466     27 393 kbps     40 682 kbps     00:26:30.505    35 220 kbps     00:24:39.644    32 377 kbps     00:33:27.755    142 816 bytes   582 118 bytes   00:33:39.976
5               0:33:54.449     0:09:47.837     25 541 kbps     36 867 kbps     00:40:12.368    31 750 kbps     00:40:09.824    31 063 kbps     00:35:37.677    133 157 bytes   469 577 bytes   00:40:14.078
6               0:43:42.286     0:09:14.387     25 204 kbps     39 639 kbps     00:51:34.216    35 505 kbps     00:45:24.179    34 346 kbps     00:45:23.303    131 402 bytes   565 861 bytes   00:49:45.649
7               0:52:56.673     0:10:33.799     25 265 kbps     39 407 kbps     00:55:54.309    35 083 kbps     01:02:10.893    33 144 kbps     00:55:50.722    131 719 bytes   509 454 bytes   01:02:16.941
8               1:03:30.473     0:07:35.913     24 631 kbps     37 653 kbps     01:06:33.698    31 815 kbps     01:06:19.934    30 087 kbps     01:09:25.578    128 417 bytes   541 428 bytes   01:06:22.645
9               1:11:06.387     0:09:48.004     25 143 kbps     36 917 kbps     01:12:29.762    31 730 kbps     01:12:20.127    30 539 kbps     01:12:20.794    131 084 bytes   377 724 bytes   01:20:46.132
10              1:20:54.391     0:09:44.709     26 981 kbps     42 868 kbps     01:26:24.470    36 726 kbps     01:24:39.616    34 313 kbps     01:23:30.964    140 665 bytes   582 933 bytes   01:23:35.802
11              1:30:39.100     0:07:42.378     28 153 kbps     40 834 kbps     01:38:15.806    34 948 kbps     01:38:12.761    32 997 kbps     01:38:08.173    146 775 bytes   512 726 bytes   01:38:14.430
12              1:38:21.478     0:11:55.673     19 975 kbps     42 387 kbps     01:39:34.927    34 743 kbps     01:39:32.716    33 364 kbps     01:43:52.309    104 141 bytes   583 141 bytes   01:44:46.321
13              1:50:17.152     0:00:01.001     75 kbps         0 kbps          00:00:00.000    0 kbps          00:00:00.000    0 kbps          00:00:00.000    407 bytes       2 428 bytes     01:50:17.902

STREAM DIAGNOSTICS:

File            PID             Type            Codec           Language                Seconds                 Bitrate                 Bytes           Packets
----            ---             ----            -----           --------                --------------          --------------          -------------   -----
00005.M2TS      4113 (0x1011)   0x1B            AVC                                     2721,969                25 017                  8 511 837 249   46 298 208
00005.M2TS      4352 (0x1100)   0x85            DTS-HD HR       deu (German)            2721,969                2 814                   957 484 136     5 614 246
00005.M2TS      4353 (0x1101)   0x85            DTS-HD HR       eng (English)           2721,969                2 814                   957 484 136     5 614 246
00005.M2TS      4354 (0x1102)   0x82            DTS             rus (Russian)           2721,969                755                     256 724 158     1 531 158
00005.M2TS      4608 (0x1200)   0x90            PGS             rus (Russian)           2721,969                16                      5 454 191       31 899
00005.M2TS      4609 (0x1201)   0x90            PGS             deu (German)            2721,969                15                      5 136 143       28 842
00005.M2TS      4610 (0x1202)   0x90            PGS             deu (German)            2721,969                0                       30 417          187
00007.M2TS      4113 (0x1011)   0x1B            AVC                                     43,460                  25 926                  140 843 396     766 049
00007.M2TS      4352 (0x1100)   0x85            DTS-HD HR       deu (German)            43,460                  2 820                   15 319 416      89 826
00007.M2TS      4353 (0x1101)   0x85            DTS-HD HR       eng (English)           43,460                  2 820                   15 319 416      89 826
00007.M2TS      4354 (0x1102)   0x82            DTS             rus (Russian)           43,460                  756                     4 107 498       24 498
00007.M2TS      4608 (0x1200)   0x90            PGS             rus (Russian)           43,460                  26                      143 129         829
00007.M2TS      4609 (0x1201)   0x90            PGS             deu (German)            43,460                  9                       47 815          267
00007.M2TS      4610 (0x1202)   0x90            PGS             deu (German)            43,460                  1                       7 842           50
00002.M2TS      4113 (0x1011)   0x1B            AVC                                     1360,568                25 034                  4 257 625 749   23 158 367
00002.M2TS      4352 (0x1100)   0x85            DTS-HD HR       deu (German)            1360,568                2 814                   478 623 880     2 806 430
00002.M2TS      4353 (0x1101)   0x85            DTS-HD HR       eng (English)           1360,568                2 814                   478 623 880     2 806 430
00002.M2TS      4354 (0x1102)   0x82            DTS             rus (Russian)           1360,568                755                     128 330 390     765 390
00002.M2TS      4608 (0x1200)   0x90            PGS             rus (Russian)           1360,568                19                      3 157 475       18 436
00002.M2TS      4609 (0x1201)   0x90            PGS             deu (German)            1360,568                10                      1 720 912       9 700
00002.M2TS      4610 (0x1202)   0x90            PGS             deu (German)            1360,568                0                       43 798          260
00061.M2TS      4113 (0x1011)   0x1B            AVC                                     159,493                 25 290                  504 205 346     2 742 462
00061.M2TS      4352 (0x1100)   0x85            DTS-HD HR       deu (German)            159,493                 2 816                   56 148 680      329 230
00061.M2TS      4353 (0x1101)   0x85            DTS-HD HR       eng (English)           159,493                 2 816                   56 148 680      329 230
00061.M2TS      4354 (0x1102)   0x82            DTS             rus (Russian)           159,493                 755                     15 054 790      89 790
00061.M2TS      4608 (0x1200)   0x90            PGS             rus (Russian)           159,493                 15                      308 427         1 820
00061.M2TS      4609 (0x1201)   0x90            PGS             deu (German)            159,493                 8                       151 426         844
00061.M2TS      4610 (0x1202)   0x90            PGS             deu (German)            159,493                 0                       7 842           50
00058.M2TS      4113 (0x1011)   0x1B            AVC                                     537,871                 25 084                  1 686 518 764   9 173 345
00058.M2TS      4352 (0x1100)   0x85            DTS-HD HR       deu (German)            537,871                 2 814                   189 228 368     1 109 548
00058.M2TS      4353 (0x1101)   0x85            DTS-HD HR       eng (English)           537,871                 2 814                   189 228 368     1 109 548
00058.M2TS      4354 (0x1102)   0x82            DTS             rus (Russian)           537,871                 755                     50 736 604      302 604
00058.M2TS      4608 (0x1200)   0x90            PGS             rus (Russian)           537,871                 17                      1 135 241       6 659
00058.M2TS      4609 (0x1201)   0x90            PGS             deu (German)            537,871                 5                       337 048         1 883
00058.M2TS      4610 (0x1202)   0x90            PGS             deu (German)            537,871                 1                       41 387          247
00060.M2TS      4113 (0x1011)   0x1B            AVC                                     52,761                  25 872                  170 627 367     928 054
00060.M2TS      4352 (0x1100)   0x85            DTS-HD HR       deu (German)            52,761                  2 819                   18 591 160      109 010
00060.M2TS      4353 (0x1101)   0x85            DTS-HD HR       eng (English)           52,761                  2 819                   18 591 160      109 010
00060.M2TS      4354 (0x1102)   0x82            DTS             rus (Russian)           52,761                  756                     4 984 730       29 730
00060.M2TS      4608 (0x1200)   0x90            PGS             rus (Russian)           52,761                  9                       56 549          329
00060.M2TS      4609 (0x1201)   0x90            PGS             deu (German)            52,761                  10                      66 635          377
00060.M2TS      4610 (0x1202)   0x90            PGS             deu (German)            52,761                  1                       7 842           50
00062.M2TS      4113 (0x1011)   0x1B            AVC                                     1740,322                24 430                  5 314 487 509   28 907 556
00062.M2TS      4352 (0x1100)   0x85            DTS-HD HR       deu (German)            1740,322                2 814                   612 202 584     3 589 674
00062.M2TS      4353 (0x1101)   0x85            DTS-HD HR       eng (English)           1740,322                2 814                   612 202 584     3 589 674
00062.M2TS      4354 (0x1102)   0x82            DTS             rus (Russian)           1740,322                755                     164 144 996     978 996
00062.M2TS      4608 (0x1200)   0x90            PGS             rus (Russian)           1740,322                13                      2 820 377       16 417
00062.M2TS      4609 (0x1201)   0x90            PGS             deu (German)            1740,322                7                       1 579 834       8 854
00062.M2TS      4610 (0x1202)   0x90            PGS             deu (German)            1740,322                0                       9 692           60
00075.M2TS      4113 (0x1011)   0x1B            AVC                                     0,876                   108                     11 779          72

<---- END FORUMS PASTE ---->

QUICK SUMMARY:

Disc Title: Leon [2-in-1 Theatrical & Director's Cut] (1994) Blu-ray
Disc Size: 40 770 193 426 bytes
Protection: AACS
BD-Java: No
Playlist: 00002.MPLS
Size: 27 521 679 360 bytes
Length: 1:50:18.153
Total Bitrate: 33,27 Mbps
Video: MPEG-4 AVC Video / 24884 kbps / 1080p / 23,976 fps / 16:9 / High Profile 4.1
Audio: German / DTS-HD High-Res Audio / 7.1 / 48 kHz / 2814 kbps / 24-bit (DTS Core: 5.1 / 48 kHz / 1509 kbps / 24-bit)
Audio: English / DTS-HD High-Res Audio / 7.1 / 48 kHz / 2814 kbps / 24-bit (DTS Core: 5.1 / 48 kHz / 1509 kbps / 24-bit)
Audio: Russian / DTS Audio / 5.1 / 48 kHz / 768 kbps / 24-bit
Subtitle: Russian / 15,805 kbps
Subtitle: German / 10,927 kbps
Subtitle: German / 0,180 kbps

Натали Портман пробовалась на роль, но была отвергнута в силу своего слишком юного возраста. Однако, неутомимая девчонка через некоторое время вновь пробилась на пробы и выдала такой спектакль, что Люк Бессон ни на секунду больше не усомнился в таланте актрисы и взял ее на роль Матильды.
Растение в горшке, которое постоянно таскали с собой главные герои, называется аглаонема (aglaonema). По-английски слово произносится как «ag-leon-ema».
На ту же роль пробовалась Лив Тайлер, но была признана великовозрастной для ее исполнения.
Во время съемок произошел довольно забавный эпизод. Некий злоумышленник ограбил магазин, и бежал с добычей по улицам города. Внезапно он натолкнулся на съемочную бригаду. Увидев кучу «полицейских», он предпочел немедленно сдаться. Каково же было его удивление, когда выяснилось, что все полицейские на самом деле простые статисты на съемках кинокартины.
Леон Гамон — известный французский изобретатель. Внес непосредственный вклад в развитие кинематографа наряду с братьями Люмьер. В честь него была названа французская кинокомпания «Gaumont», которая и выпустила данную кинокартину.
Оригинальный сценарий содержал сцены «неловкого сексуального напряжения» между Матильдой и Леоном, включая сцену, в которой оба героя лежат на кровати, а Матильда рассуждает о сексе. Эти сцены так и не вошли в американскую версию картины, зато присутствовали в европейском варианте.
Марка пистолета, используемого Леоном, носит название Beretta 92.
Полное имя главного героя — Леон Монтана.
Полная версия фильма имеет хронометраж 136 минут.
Фильм, который Леон смотрит в кинотеатре - «Всегда хорошая погода» с Джином Келли в главной роли.
скриншот   скриншот   скриншот   скриншот  



Скачать Леон через торрент http://s010.radikal.ru/i311/1508/4c/483de4a7ceb6.jpg Скачать, смотреть онлайн Леон бесплантно в хорошем качестве Описание: Профессиональный убийца Леон, не знающий пощады и жалости, знакомится со своей очаровательной соседкой Матильдой, семью которой ... 10 10 4
Торрент: Зарегистрирован [2015-08-09 22:38] · скачан: 10 раз
Статус: √ проверено
Размер: 37.97 GB
Как cкачать? Как скачать Леон через торрент | UTorrent

% Раздел Тема Автор DL S | L
Порно фильмы DVD [ 4.01 GB ] The Chameleon / Хамелеон | | The Chameleon / Хамелеон (John Leslie Леонид Ильич Скачать
1 | 1
3D Мультфильмы [ 7.45 GB ] Спасти Санту в 3Д / Saving Santa 3D | DUB | 1080p serega768 Скачать
1 | 0
Зарубежные сериалы [ 22.11 GB ] Леонардо / Leonardo / Сезон: 1 / Серии: 1-8 из 8 | HDRezka Studio | 1080p killermax2013 Скачать
1 | 0
Зарубежные сериалы [ 9.41 GB ] Леонардо / Leonardo / Сезон: 1 / Серии: 1-8 из 8 | Кириллица | 720p killermax2013 Скачать
1 | 0
Ultra HD (UHD: 2K, 4K, 8K) [ 63.19 GB ] Леон / Leon: The Professional | MVO + 4xAVO | 2160p sheker187 Скачать
1 | 0
Фильмы 2019-2020 [DVDrip, WEB-DLRip, HDrip] (DUB, MVO) [ 1.46 GB ] Леонардо да Винчи. Неизведанные миры / Io, Leonardo | iTunes | DLRip bober100 Скачать
1 | 0
Фильмы [HD 720p, 1080p] (Хороший звук DUB, MVO) [ 4.63 GB ] Проклятие Аннабель / Annabelle | Лицензия | 720p, Дубляж - Лицензия / iTunes _KaisiK_ Скачать
1 | 0



Последний раз редактировалось: den7z8 (2015-08-10 13:01), всего редактировалось 1 раз

28-11-2019 20:33  


Отключить вcю реклaмy на сайте, в т.ч. и в плеере онлайн просмотра!

10-08-2015 04:17 Леон Скачать торрент  

    Дорогой пользователь! Огромная просьба, поблагодарите релизера, оцените раздачу и оставьте свои комментарий, если Вы скачали Леон через торрент бесплатно!!
    Комментировать посты могут только пользователи прошедшие не сложную регистрацию
    Показать сообщения:    


    Леон через торрент
    Скачать бесплатно Леон
    Леон скачать торрент
    Леон смотреть онлайн
    Cкачать фильм Леон бесплатно
    Леон скачать торрент в хорошем качестве
    Леон смотреть онлайн бесплатно в хорошем качестве
    Вы не можете начинать темы
    Вы не можете отвечать на сообщения
    Вы не можете редактировать свои сообщения
    Вы не можете удалять свои сообщения
    Вы не можете голосовать в опросах
    Вы не можете прикреплять файлы к сообщениям
    Вы можете скачивать файлы
    Леон / Leon [2-in-1: Theatrical & Director's Cut] [1994,Триллер, Драма, Криминал , Blu-ray, Многоголосый закадровый] смотреть онлайн, скачать торрент picoco.icu