Ссылка на приватное зеркало всего за 1$. Внимание количество ограничено!!!

OK

1+1

iTunes

мы

OK

1

WEB-DLRip

Джокер

Пифагор

Ведьмак / The Witcher сериал

Лицензия

ПШазам

ОК

Оно 2

iTunes

30
pack

Вам бонус

ВАЖНО

!!Акция!!

Alien_RageХит недели

RePack

Resident Evil 21

ИГРА 18+

pack

RePack

jed

!!Акция!!

Alien_Rage

RePack

fifa19

RePack

Assassins Creed: Odyssey

RePack

NEED FOR SPEED™ PAYBACK

4 сезон

9 сезон

Бесстыжие 9 сезон

Все сериалы

все сериалы на PB.wtf

RePack

FAR CRY 5
  

Суперфорсаж! / Superfast! (Джейсон Фридберг / Jason Friedberg, Аарон Зельцер / Aaron Seltzer) [2014, комедия, BDRip-AVC от potroks] Dub pb.wtf

Суперфорсаж! через торрент pb.wtf

Размер: 1.46 GB | Добавлен: 4 года 5 мес. назад | Торрент скачан:440 раз
Скачать  

10-08-2015 20:11 Суперфорсаж! Скачать торрент  

Суперфорсаж! / Superfast!
«They're going nowhere...fast»
Год выпуска: 2014
Страна: США / 3 in the Box, Safran Company, The
Жанр: комедия
Продолжительность: 01:39:30
Перевод: Дубляж [iTunes]
Навигация по главам: есть
Режиссер: Джейсон Фридберг / Jason Friedberg, Аарон Зельцер / Aaron Seltzer
В ролях:

Алекс Ашбаух (Officer Lucas White), Дэйл Павински (Vin Serento), Лили Мирожник (Jordana), Андреа Наведо (Michelle), Дэниэл Буко (Curtis), Дио Джонсон (Detective Rock Johnson), Шантель Вислэвски (Officer Julie Canaro), Джозеф Джулиан Сория (Cesar), Гонсало Менендес (Detective Hanover), Омар Чапарро (Juan Carlos de la Sol), Вероника МакКласки (Street Dancer), Шакира Баррера (Sofia)
Описание: Короли комедии снова в строю. На этот раз объектом пародии стала «форсажная» франшиза и прочие фильмы о гонках, ограблениях и крутых тачках. Шутки еще смешнее, ирония еще жестче, плотность гэгов - еще выше.

Качество: BDRip-AVC
Формат: MKV
Видео кодек: AVC
Аудио кодек: AC3
Видео: AVC, 896x504 (16:9), 1717 kbps, 24 fps, 0,158 bit/pixel
Аудио: AC3 / 5.1 / 48 kHz / 384 kbps / 16 bit
Релиз группы:
Автор рипа: potroks

Код:

General
Unique ID                                : 232099699530991533024808085460184989163 (0xAE9CC6B12D3B3F15A8F7973755FBFDEB)
Complete name                            : N:\Комедия\Superforsazh.2015.RUS.BDRip.x264.-HELLYWOOD.mkv
Format                                   : Matroska
Format version                           : Version 4 / Version 2
File size                                : 1.46 GiB
Duration                                 : 1h 39mn
Overall bit rate                         : 2 102 Kbps
Movie name                               : Superfast! (2015) - HELLYWOOD
Encoded date                             : UTC 2015-08-10 19:53:12
Writing application                      : mkvmerge v5.9.0 ('On The Loose') built on Dec 15 2012 16:39:58
Writing library                          : libebml v1.3.0 + libmatroska v1.4.0

Video
ID                                       : 1
Format                                   : AVC
Format/Info                              : Advanced Video Codec
Format profile                           : High@L4.1
Format settings, CABAC                   : Yes
Format settings, ReFrames                : 12 frames
Codec ID                                 : V_MPEG4/ISO/AVC
Duration                                 : 1h 39mn
Bit rate                                 : 1 717 Kbps
Width                                    : 896 pixels
Height                                   : 504 pixels
Display aspect ratio                     : 16:9
Frame rate                               : 24.000 fps
Color space                              : YUV
Chroma subsampling                       : 4:2:0
Bit depth                                : 8 bits
Scan type                                : Progressive
Bits/(Pixel*Frame)                       : 0.158
Stream size                              : 1.16 GiB (80%)
Title                                    : potroks
Writing library                          : x264 core 146 r2538 121396c
Encoding settings                        : cabac=1 / ref=12 / deblock=1:-2:-2 / analyse=0x3:0x113 / me=umh / subme=11 / psy=1 / psy_rd=1.03:0.07 / mixed_ref=1 / me_range=56 / chroma_me=1 / trellis=2 / 8x8dct=1 / cqm=0 / deadzone=21,11 / fast_pskip=0 / chroma_qp_offset=-3 / threads=9 / lookahead_threads=2 / sliced_threads=0 / nr=0 / decimate=1 / interlaced=0 / bluray_compat=0 / constrained_intra=0 / bframes=13 / b_pyramid=2 / b_adapt=2 / b_bias=0 / direct=3 / weightb=1 / open_gop=0 / weightp=2 / keyint=250 / keyint_min=23 / scenecut=40 / intra_refresh=0 / rc_lookahead=60 / rc=2pass / mbtree=0 / bitrate=1717 / ratetol=1.0 / qcomp=0.70 / qpmin=0 / qpmax=69 / qpstep=4 / cplxblur=20.0 / qblur=0.5 / vbv_maxrate=14000 / vbv_bufsize=14000 / nal_hrd=none / filler=0 / ip_ratio=1.40 / pb_ratio=1.30 / aq=1:0.80
Language                                 : English
Default                                  : Yes
Forced                                   : No

Audio
ID                                       : 2
Format                                   : AC-3
Format/Info                              : Audio Coding 3
Mode extension                           : CM (complete main)
Codec ID                                 : A_AC3
Duration                                 : 1h 39mn
Bit rate mode                            : Constant
Bit rate                                 : 384 Kbps
Channel(s)                               : 6 channels
Channel positions                        : Front: L C R, Side: L R, LFE
Sampling rate                            : 48.0 KHz
Bit depth                                : 16 bits
Compression mode                         : Lossy
Stream size                              : 273 MiB (18%)
Title                                    : Dub | DD 5.1 @ 384 kbps - iTunes
Language                                 : Russian
Default                                  : Yes
Forced                                   : No

Menu
00:00:00.000                             : en:(01)00:00:00:000
00:14:28.541                             : en:(02)00:14:28:541
00:25:07.916                             : en:(03)00:25:07:916
00:37:34.666                             : en:(04)00:37:34:666
00:47:31.666                             : en:(05)00:47:31:666
00:57:06.083                             : en:(06)00:57:06:083
01:05:45.000                             : en:(07)01:05:45:000
01:20:57.250                             : en:(08)01:20:57:250
01:31:53.166                             : en:(09)01:31:53:166

pb.wtf



Скачать Суперфорсаж! через торрент http://i72.fastpic.ru/big/2015/0811/be/02638388b95ebeec2c0864b632bbe5be.png Скачать фильм Суперфорсаж! через торрент бесплантно в хорошем качестве Описание: Короли комедии снова в строю. На этот раз объектом пародии стала «форсажная» франшиза и прочие фильмы о гонках, ограблениях и ... 8.7 10 15
Торрент: Зарегистрирован [2015-08-10 20:11] · скачан: 440 раз
Статус: √ проверено
Размер: 1.46 GB
Как cкачать? Как скачать Суперфорсаж! через торрент | qTorrent

28-11-2019 20:33  

Отключить всю рекламу на сайте

10-08-2015 20:52 Суперфорсаж! Скачать торрент  

Пародия на форсаж??? Режисёр Джейсон Фридберг просто безумный чувак... По стопам Уве Болла идёт что-ли pb.wtf



11-08-2015 05:20 Суперфорсаж! Скачать торрент  

Фильм очень унылpb.wtf



11-08-2015 08:56 Суперфорсаж! Скачать торрент  

второй скриншот норм так накормил шоколадом его))) :rofle: :rofle: :rofle:pb.wtf



    Дорогой пользователь! Огромная просьба, поблагодарите релизера, оцените раздачу и оставьте свои комментарий, если Вы скачали Суперфорсаж! через торрент бесплатно! Внесите свою лепту в развитие PiratBit!
    Комментировать посты могут только пользователи прошедшие не сложную регистрацию
    Показать сообщения:    

    Суперфорсаж! через торрент
    Скачать бесплатно Суперфорсаж!
    Суперфорсаж! скачать торрент
    Суперфорсаж! смотреть онлайн
    Cкачать фильм Суперфорсаж! бесплатно
    Суперфорсаж! скачать торрент в хорошем качестве
    Суперфорсаж! смотреть онлайн бесплатно в хорошем качестве


    Вы не можете начинать темы
    Вы не можете отвечать на сообщения
    Вы не можете редактировать свои сообщения
    Вы не можете удалять свои сообщения
    Вы не можете голосовать в опросах
    Вы не можете прикреплять файлы к сообщениям
    Вы можете скачивать файлы