Ссылка на приватное зеркало нашего сайта всего за 1$. Внимание количество ограничено!!!

2 сезон

iTunes

1 сезон

1

iTunes

iTunes

iTunes

1 сезон

RePack

30

ИГРА 18+

pack

ВАЖНО

!!Акция!!

Alien_RageХит недели

RePack

MK11
pack

Забери бонус

RePack

jed

!!Акция!!

Alien_Rage

RePack

fifa19

RePack

Assassins Creed: Odyssey

RePack

NEED FOR SPEED™ PAYBACK

4 сезон

9 сезон

Бесстыжие 9 сезон

Все сериалы

все сериалы на PB.wtf

RePack

FAR CRY 5
  

Полицейский участок /Серии: 1-16 из 16/ (Мирослав Малич) [2015 г., детектив, HDTV 1080i] Оригинал pb.wtf

Полицейский участок через торрент pb.wtf

Размер: 42.2 GB | Добавлен: 5 лет 2 мес. назад | Торрент скачан:49 раз
Скачать  

11-08-2015 02:36 Полицейский участок Скачать торрент  

Полицейский участок
Год выпуска: 2015
Страна: Россия / ВайТ Медиа
Жанр: детектив
Продолжительность: 1 x ~ 00:45:00
Перевод: Оригинал
Режиссер: Мирослав Малич
Продюссер: Тимур Вайнштейн
Сценарий: Михаил Шульман, Дмитрий Курилов

Премьера в России: 10 августа 2015

IMDB


В ролях: Анна Снаткина, Андрей Чернышов, Роман Агеев, Олег Долин, Андрей Кузнецов, Михаил Тарабукин, Петр Логачев, Игорь Черневич, Виктория Стивина, Никита Яковлев

Описание: После убийства мужа, собравшего компромат на чиновников очень высокого ранга, главную героиню — Полину Левашову (майора полиции) под вымышленной фамилией (Фомина) отправляют из Петербурга в маленький провинциальный город, чтобы спрятать от преступников, которые уверены, что информация с компроматом находится у неё. Там этой с виду хрупкой женщине предстоит возглавить отделение полиции, завоевать доверие команды полицейских-мужчин и защитить себя и детей от тех, кто убил ее мужа, а теперь, в погоне за секретными материалами, которые собрал её муж, охотятся за ней.

Качество: HDTV 1080i
Формат: MPEG-TS
Видео кодек: AVC
Аудио кодек: MP2
Видео: MPEG-4 AVC, ~ 8500 Кбит/с, 1920x1080(16х9), 25.000 кадр/с
Аудио#1: Русский: MP2, 2 ch, 256 Кбит/с, 48,0 КГц
скриншот  скриншот  скриншот  скриншот  

Общее
Идентификатор : 1 (0x1)
Полное имя : E:\Policejskij.uchastok.2015.HDTV.(1080i).MediaClub\Policejskij.uchastok.(01.seriya.iz.16).2015.HDTV.(1080i).MediaClub.ts
Формат : MPEG-TS
Размер файла : 2,69 Гбайт
Продолжительность : 45 м.
Режим общего битрейта : Переменный
Общий поток : 8539 Кбит/сек

Видео
Идентификатор : 2911 (0xB5F)
Идентификатор меню : 1009 (0x3F1)
Формат : AVC
Формат/Информация : Advanced Video Codec
Профиль формата : High@L4.0
Параметр CABAC формата : Да
Параметр ReFrames формата : 4 кадра
Идентификатор кодека : 27
Продолжительность : 45 м.
Битрейт : 7859 Кбит/сек
Ширина : 1920 пикселей
Высота : 1080 пикселей
Соотношение сторон : 16:9
Частота кадров : 25,000 кадров/сек
Цветовое пространство : YUV
Субдискретизация насыщенности : 4:2:0
Битовая глубина : 8 бит
Тип развёртки : MBAFF
Бит/(Пиксели*Кадры) : 0.152
Размер потока : 2,47 Гбайт (92%)

Аудио
Идентификатор : 2912 (0xB60)
Идентификатор меню : 1009 (0x3F1)
Формат : MPEG Audio
Версия формата : Version 1
Профиль формата : Layer 2
Идентификатор кодека : 3
Продолжительность : 45 м.
Вид битрейта : Постоянный
Битрейт : 256 Кбит/сек
Каналы : 2 канала
Частота : 48,0 КГц
Метод сжатия : С потерями
Задержка видео : -160 мс.
Размер потока : 82,5 Мбайт (3%)
Язык : Russian

Внимание! Раздача ведётся путём добавления новых серий; при каждом добавлении создётся новый торрент. Чтобы начать докачку новой серии, пользователям необходимо сделать следующее:
(1) Остановить скачивание,
(2) Удалить старый торрент у себя из клиента (старые серии удалять не надо),
(3) Скачать новый торрент и запустить его у себя в клиенте вместо старого, при этом указать клиенту путь в старую папку куда и должно происходить скачивание новых серий.

Ваш клиент при этом должен произвести хеширование (проверку) старой папки (если не производит сам - помогите ему сделать это), и будет докачивать только те серии которых у вас ещё нет. Старые серии при этом не удаляются, а продолжают раздаваться!

Eсли вы уже удалили старые серии, то предотвратить повторную закачку старых серий можно, отжав галочку в соответсвующих местах при запуске нового торрента. По возможности, желательно не удалять старые серии как можно дольше чтобы релизёр не столько продолжал раздавать старые серии, а смог сконцентрироваться на новых.


Полицейский участок скачать торрент



Добавлены 15-16 серии.pb.wtf



Скачать Полицейский участок через торрент http://pic1.kartinco.top/images/10/qali7.jpg Скачать фильм Полицейский участок через торрент бесплантно в хорошем качестве Описание: После убийства мужа, собравшего компромат на чиновников очень высокого ранга, главную героиню — Полину Левашову (майора полиции) ... 9.3 10 9
Info! Золотая раздача, скачанное не засчитывается.
Торрент: Зарегистрирован [2015-08-20 22:53] · скачан: 49 раз
Статус: √ проверено
Размер: 42.2 GB
Как cкачать? Как скачать Полицейский участок через торрент | qTorrent

28-11-2019 20:33  

Отключить всю рекламу на сайте

    Дорогой пользователь! Огромная просьба, поблагодарите релизера, оцените раздачу и оставьте свои комментарий, если Вы скачали Полицейский участок через торрент бесплатно! Внесите свою лепту в развитие PiratBit!
    Комментировать посты могут только пользователи прошедшие не сложную регистрацию
    Показать сообщения:    

    Полицейский участок через торрент
    Скачать бесплатно Полицейский участок
    Полицейский участок скачать торрент
    Полицейский участок смотреть онлайн
    Cкачать фильм Полицейский участок бесплатно
    Полицейский участок скачать торрент в хорошем качестве
    Полицейский участок смотреть онлайн бесплатно в хорошем качестве


    Вы не можете начинать темы
    Вы не можете отвечать на сообщения
    Вы не можете редактировать свои сообщения
    Вы не можете удалять свои сообщения
    Вы не можете голосовать в опросах
    Вы не можете прикреплять файлы к сообщениям
    Вы можете скачивать файлы