Ссылка на приватное зеркало всего за 1$. Внимание количество ограничено!!!

iTunes

iTunes

iTunes

1

iTunes

iTunes

iTunes

WEBRip

iTunes

30
pack

$ от Little Big

ВАЖНО

!!Акция!!

Alien_RageХит недели

RePack

Resident Evil 21

ИГРА 18+

pack

RePack

jed

!!Акция!!

Alien_Rage

RePack

fifa19

RePack

Assassins Creed: Odyssey

RePack

NEED FOR SPEED™ PAYBACK

4 сезон

9 сезон

Бесстыжие 9 сезон

Все сериалы

все сериалы на PB.wtf

RePack

FAR CRY 5
  

Кливлендские пленницы / Cleveland Abduction (Alex Kalymnios) [2015, США, криминал, WEB-DLRip, MVO] [Лицензия / iTunes] pb.wtf

Кливлендские пленницы через торрент pb.wtf

Размер: 1.37 GB | Добавлен: 4 года 11 мес. назад | Торрент скачан:1309 раз
Скачать  

11-08-2015 03:35 Кливлендские пленницы Скачать торрент  

Кливлендские пленницы / Cleveland Abduction


  • Год выпуска: 2015
  • Страна: США
  • Жанр: криминал
  • Продолжительность: 01:27:23
  • Перевод: Профессиональный многоголосый закадровый [Лицензия / iTunes]

  • Режиссер: Alex Kalymnios
  • В ролях:

    Тэрин Мэннинг (Michelle Knight), Рэймонд Крус (Ariel Castro), Кэти Сариф (Gina DeJesus), Саманта Дроук (Amanda Berry), Пэм Гриер (Carla), Джо Мортон (Agent Solano), Джейн Моудер (Michelle's Mother), Grace Ransom (Emily Castro), Кристина Копф (Social Worker), Tammy Tsai (Dr. Elaine Chen), Дэвид Манзанарес (Michael Santana), Джим Кантафио (Judge Russo)

  • Описание:
    Мать-одиночку, ставшую первой жертвой похитителя Ариеля Кастро, удерживают силой в его доме в течение 11 лет. Там она становится подругой и сестрой двум другим женщинам, похищенным Кастро. Основано на реальных событиях.
  • Рейтинг:



  • Качество: WEB-DLRip
  • Формат: :AVI
  • Видео кодек: XviD
  • Аудио кодек: AC3
  • Видео: 720x400 (16:9), 1845 kbps, 23,976 fps, 0,267 bpp
  • Аудио: 5.1 / 48 kHz / 384 kbps / 16 bit
  • Релиз от: GEKADOL

    Код:

    General
    Complete name                            : D:\Фильмы\PleHHicy.2015.P.WEB-DLRip.1400MB.avi
    Format                                   : AVI
    Format/Info                              : Audio Video Interleave
    File size                                : 1.37 GiB
    Duration                                 : 1h 27mn
    Overall bit rate                         : 2 239 Kbps
    Writing application                      : VirtualDubMod 1.5.10.2 (build 2540/release)
    Writing library                          : VirtualDubMod build 2540/release

    Video
    ID                                       : 0
    Format                                   : MPEG-4 Visual
    Format profile                           : Advanced Simple@L5
    Format settings, BVOP                    : 2
    Format settings, QPel                    : No
    Format settings, GMC                     : No warppoints
    Format settings, Matrix                  : Default (MPEG)
    Codec ID                                 : XVID
    Codec ID/Hint                            : XviD
    Duration                                 : 1h 27mn
    Bit rate                                 : 1 846 Kbps
    Width                                    : 720 pixels
    Height                                   : 400 pixels
    Display aspect ratio                     : 16:9
    Frame rate                               : 23.976 fps
    Color space                              : YUV
    Chroma subsampling                       : 4:2:0
    Bit depth                                : 8 bits
    Scan type                                : Progressive
    Compression mode                         : Lossy
    Bits/(Pixel*Frame)                       : 0.267
    Stream size                              : 1.13 GiB (82%)
    Writing library                          : XviD 1.2.1 (UTC 2008-12-04)

    Audio
    ID                                       : 1
    Format                                   : AC-3
    Format/Info                              : Audio Coding 3
    Mode extension                           : CM (complete main)
    Codec ID                                 : 2000
    Duration                                 : 1h 27mn
    Bit rate mode                            : Constant
    Bit rate                                 : 384 Kbps
    Channel(s)                               : 6 channels
    Channel positions                        : Front: L C R, Side: L R, LFE
    Sampling rate                            : 48.0 KHz
    Bit depth                                : 16 bits
    Compression mode                         : Lossy
    Stream size                              : 240 MiB (17%)
    Alignment                                : Split accross interleaves
    Interleave, duration                     : 42 ms (1.00 video frame)
    Interleave, preload duration             : 500 ms




    Скриншоты:



    pb.wtf



  • Скачать Кливлендские пленницы через торрент http://i4.imageban.ru/out/2015/08/11/c1de0e30f31787d75253c6b58ccfb7cf.jpg Скачать фильм Кливлендские пленницы через торрент бесплантно в хорошем качестве Описание: Мать-одиночку, ставшую первой жертвой похитителя Ариеля Кастро, удерживают силой в его доме в течение 11 лет. Там она становится ... 9.3 10 30
    Info! Золотая раздача, скачанное не засчитывается.
    Торрент: Зарегистрирован [2015-08-11 03:35] · скачан: 1 309 раз
    Статус: √ проверено
    Размер: 1.37 GB
    Как cкачать? Как скачать Кливлендские пленницы через торрент | qTorrent

    % Раздел Тема Автор DL S | L
    Фильмы (WEB-DL 720p, 1080p) [ 2.69 GB ] Кливлендские пленницы / Cleveland Abduction [2015 WEB-DL 720p MVO] + ENG + UKR GEKADOL Скачать
    1 | 0

    28-11-2019 20:33  

    Отключить всю рекламу на сайте

    11-08-2015 13:48 Кливлендские пленницы Скачать торрент  

    Как фильм ???pb.wtf



    12-08-2015 13:32 Кливлендские пленницы Скачать торрент  

    Неплохой фильм, но я ожидал большего.pb.wtf



      Дорогой пользователь! Огромная просьба, поблагодарите релизера, оцените раздачу и оставьте свои комментарий, если Вы скачали Кливлендские пленницы через торрент бесплатно! Внесите свою лепту в развитие PiratBit!
      Комментировать посты могут только пользователи прошедшие не сложную регистрацию
      Показать сообщения:    

      Кливлендские пленницы через торрент
      Скачать бесплатно Кливлендские пленницы
      Кливлендские пленницы скачать торрент
      Кливлендские пленницы смотреть онлайн
      Cкачать фильм Кливлендские пленницы бесплатно
      Кливлендские пленницы скачать торрент в хорошем качестве
      Кливлендские пленницы смотреть онлайн бесплатно в хорошем качестве


      Вы не можете начинать темы
      Вы не можете отвечать на сообщения
      Вы не можете редактировать свои сообщения
      Вы не можете удалять свои сообщения
      Вы не можете голосовать в опросах
      Вы не можете прикреплять файлы к сообщениям
      Вы можете скачивать файлы