Ссылка на приватное зеркало всего за 1$. Внимание количество ограничено!!!

iTunes

iTunes

iTunes

1

iTunes

iTunes

iTunes

iTunes

iTunes

30
pack

$ от Little Big

ВАЖНО

!!Акция!!

Alien_RageХит недели

RePack

Resident Evil 21

ИГРА 18+

pack

RePack

jed

!!Акция!!

Alien_Rage

RePack

fifa19

RePack

Assassins Creed: Odyssey

RePack

NEED FOR SPEED™ PAYBACK

4 сезон

9 сезон

Бесстыжие 9 сезон

Все сериалы

все сериалы на PB.wtf

RePack

FAR CRY 5
  

Безумный Макс: Дорога ярости (Джордж Миллер) [2015, боевик, фантастика, приключения, WEB-DL 720p] DUB - Лицензия / iTunes Russia pb.wtf

Безумный Макс: Дорога ярости через торрент pb.wtf

Размер: 4.01 GB | Добавлен: 4 года 10 мес. назад | Торрент скачан:298 раз
Скачать  

11-08-2015 06:34 Безумный Макс: Дорога ярости Скачать торрент  

«Какой чудесный день»
Год выпуска: 2015
Страна: Австралия, США
Жанр: боевик, фантастика, приключения
Продолжительность: 02:00:21
Перевод: Дубляж - [Лицензия / iTunes Russia]
Навигация по главам: есть
Субтитры: английские
Режиссер: Джордж Миллер
В ролях: Том Харди (Max Rockatansky), Шарлиз Терон (Imperator Furiosa), Николас Холт (Nux), Хью Кияс-Бёрн (Immortan Joe), Райли Кио (Capable), Роузи Хантингтон-Уайтли (The Splendid Angharad), Зои Кравиц (Toast the Knowing), Эбби Ли (The Dag), Кортни Итон (Cheedo the Fragile), Нэйтан Джонс (Rictus Erectus), Джош Хелман (Slit), Джон Ховард (The People Eater)
Описание:
Преследуемый призраками беспокойного прошлого, Макс уверен, что лучший способ выжить - скитаться в одиночестве. Несмотря на это, он присоединяется к бунтарям, бегущим через всю пустыню на боевой фуре, под предводительством военачальника Фуриосы.
Они пытаются сбежать из Цитадели, страдающей от тирании Несмертного Джо, у которого они забрали кое-что очень ценное. Разъярённый военачальник бросает все свои силы на погоню за мятежниками, ступая на дорогу войны - дорогу ярости.
, MPAA: R - Лицам до 17 лет обязательно присутствие взрослого
Качество: WEB-DL 720p
Формат: MKV
Видео кодек: AVC
Аудио кодек: AC3
Видео: AVC, 1280x530 (2.40:1), 3910 kbps, 23,976 fps, 0,240 bpp
Аудио №1: русский / AC3 / 5.1 / 48 kHz / 384 kbps / 16 bit ||
Аудио №2: английский / AC3 / 5.1 / 48 kHz / 384 kbps / 16 bit

Код:

General
Unique ID                   : 239413603602845888875836073630402012311 (0xB41D6200F741D0DA911B545F9CFAE497)
Complete name               : E:\торент\B3zumnyj.Maks.D0roga.9rosti.2015.D.WEB-DL.720p.mkv
Format                      : Matroska
Format version              : Version 4 / Version 2
File size                   : 4.01 GiB
Duration                    : 2h 0mn
Overall bit rate            : 4 773 Kbps
Movie name                  : HDB
Encoded date                : UTC 2015-08-10 18:14:31
Writing application         : mkvmerge v6.9.1 ('Blue Panther') 64bit built on Apr 18 2014 18:23:38
Writing library             : libebml v1.3.0 + libmatroska v1.4.1

Video
ID                          : 1
Format                      : AVC
Format/Info                 : Advanced Video Codec
Format profile              : Main@L3.1
Format settings, CABAC      : No
Format settings, ReFrames   : 2 frames
Codec ID                    : V_MPEG4/ISO/AVC
Duration                    : 2h 0mn
Bit rate                    : 3 910 Kbps
Width                       : 1 280 pixels
Height                      : 530 pixels
Display aspect ratio        : 2.40:1
Frame rate mode             : Constant
Frame rate                  : 23.976 fps
Color space                 : YUV
Chroma subsampling          : 4:2:0
Bit depth                   : 8 bits
Scan type                   : Progressive
Bits/(Pixel*Frame)          : 0.240
Stream size                 : 3.29 GiB (82%)
Language                    : English
Default                     : Yes
Forced                      : No
Color range                 : Limited
Color primaries             : BT.709
Transfer characteristics    : BT.709
Matrix coefficients         : BT.709

Audio #1
ID                          : 2
Format                      : AC-3
Format/Info                 : Audio Coding 3
Mode extension              : CM (complete main)
Format settings, Endianness : Big
Codec ID                    : A_AC3
Duration                    : 2h 0mn
Bit rate mode               : Constant
Bit rate                    : 384 Kbps
Channel(s)                  : 6 channels
Channel positions           : Front: L C R, Side: L R, LFE
Sampling rate               : 48.0 KHz
Compression mode            : Lossy
Stream size                 : 331 MiB (8%)
Language                    : Russian
Default                     : Yes
Forced                      : No

Audio #2
ID                          : 3
Format                      : AC-3
Format/Info                 : Audio Coding 3
Mode extension              : CM (complete main)
Format settings, Endianness : Big
Codec ID                    : A_AC3
Duration                    : 2h 0mn
Bit rate mode               : Constant
Bit rate                    : 384 Kbps
Channel(s)                  : 6 channels
Channel positions           : Front: L C R, Side: L R, LFE
Sampling rate               : 48.0 KHz
Compression mode            : Lossy
Stream size                 : 331 MiB (8%)
Language                    : English
Default                     : No
Forced                      : No

Text
ID                          : 4
Format                      : UTF-8
Codec ID                    : S_TEXT/UTF8
Codec ID/Info               : UTF-8 Plain Text
Language                    : English
Default                     : No
Forced                      : No

Menu
00:00:00.000                : en:1
00:10:42.000                : en:2
00:19:06.000                : en:3
00:30:13.000                : en:4
00:42:55.000                : en:5
00:49:33.000                : en:6
00:59:55.000                : en:7
01:13:02.000                : en:8
01:22:08.000                : en:9
01:30:02.000                : en:10
01:40:39.000                : en:11
01:49:12.000                : en:12
01:53:05.000                : en:13

pb.wtf



Скачать Безумный Макс: Дорога ярости через торрент http://pic1.kartinco.top/images/10/h4e7w.jpg Скачать фильм Безумный Макс: Дорога ярости через торрент бесплантно в хорошем качестве Описание: Преследуемый призраками беспокойного прошлого, Макс уверен, что лучший способ выжить - скитаться в одиночестве. Несмотря на это, ... 10 10 10
Info! Золотая раздача, скачанное не засчитывается.
Торрент: Зарегистрирован [2015-08-11 06:34] · скачан: 298 раз
Статус: √ проверено
Размер: 4.01 GB
Как cкачать? Как скачать Безумный Макс: Дорога ярости через торрент | qTorrent

% Раздел Тема Автор DL S | L
T Фильмы (WEB-DL 720p, 1080p) [ 4.38 GB ] Безумный Макс: Дорога ярости [2015 WEB-DL 1080p] DUB - / Russia Newton5 Скачать
1 | 0


Последний раз редактировалось: Newton5 (2015-08-11 09:32), всего редактировалось 1 раз

28-11-2019 20:33  

Отключить всю рекламу на сайте

11-08-2015 06:47 Безумный Макс: Дорога ярости Скачать торрент  

Да не 5.1 это звук , ВАААСЯ ((pb.wtf
K-Lexx- писал(а):

ZohanTvir, в чем сомнения? Смотрим Отчет МедиаИнфо:

Цитата:

Каналы(s) : 6 каналов
Каналы positions : Front: L C R, Side: L R, LFE

Это и есть 5.1.



11-08-2015 07:00 Безумный Макс: Дорога ярости Скачать торрент  

ZohanTvir писал(а):

Да не 5.1 это звук , ВАААСЯ ((

Иванушка, МедиаИнфо для тебя специально написано.pb.wtf





Последний раз редактировалось: Newton5 (2015-08-11 10:36), всего редактировалось 1 раз

11-08-2015 07:35 Безумный Макс: Дорога ярости Скачать торрент  

если релиз с хдклаба то звук 100% iTunes 5.1 :pleasantry: За остальные поделки от ганга не скажу pb.wtf



    Дорогой пользователь! Огромная просьба, поблагодарите релизера, оцените раздачу и оставьте свои комментарий, если Вы скачали Безумный Макс: Дорога ярости через торрент бесплатно! Внесите свою лепту в развитие PiratBit!
    Комментировать посты могут только пользователи прошедшие не сложную регистрацию
    Показать сообщения:    

    Безумный Макс: Дорога ярости через торрент
    Скачать бесплатно Безумный Макс: Дорога ярости
    Безумный Макс: Дорога ярости скачать торрент
    Безумный Макс: Дорога ярости смотреть онлайн
    Cкачать фильм Безумный Макс: Дорога ярости бесплатно
    Безумный Макс: Дорога ярости скачать торрент в хорошем качестве
    Безумный Макс: Дорога ярости смотреть онлайн бесплатно в хорошем качестве


    Вы не можете начинать темы
    Вы не можете отвечать на сообщения
    Вы не можете редактировать свои сообщения
    Вы не можете удалять свои сообщения
    Вы не можете голосовать в опросах
    Вы не можете прикреплять файлы к сообщениям
    Вы можете скачивать файлы