Всегда рабочее зеркало без VPN и Proxy просто перед .vidak.icu напиши любое слово или цифру, Пример http://2nc7.vidak.icu

MVO

2 сезон

1 сезон

1

1 сезон

iTunes

2 сезон

13

1 сезон

Распродажа

pack

Рекомендуем

Пиратка

30

ВАЖНО

RePack

MK11

RePack

jed

RePack

fifa19

RePack

RDR2

RePack

NEED FOR SPEED™ PAYBACK

Кинопоиск HD

6 сезон

 Острые козырьки 6 сезон

Все сериалы

все сериалы на PB.wtf

RePack

FAR CRY 5

Anonymous, нам критически не хватает 5601 руб. на оплату серверов и переферии за Апрель, помоги нам пожалуйста, вся надежда только на тебя. В благодарность мы отключим тебе всю рекламу на сайте!

×
  
Magnet ссылка

Восставший из ада / Hellraiser (Клайв Баркер) [1987 г., ужасы, триллер, HDRip, Авторский (Гаврилов)] pb.wtf

Восставший из ада через торрент pb.wtf

Размер: 1.46 GB | Добавлен: 6 лет 9 мес. назад | Торрент скачан:34 раза
Смотреть онлайн Восставший из ада | Скачать    Ребята, помогите собрать деньги на оплату серверов!!!

12-08-2015 12:48 Восставший из ада Скачать торрент  

Восставший из ада / HellraiserГод выпуска: 1987
Страна: Великобритания
Жанр: ужасы, триллер
Продолжительность: 01:33:22
Перевод: Авторский (Гаврилов)
Субтитры: Нет

Режиссер: Клайв Баркер
Продюссер: Кристофер Фигг, Марк Армстронг, Селвин Робертс
Сценарий: Клайв Баркер

Бюджет: $1 000 000
Премьера в мире: 13 мая 1987



В ролях: Эндрю Робинсон, Клер Хиггинс, Эшли Лоуренс, Шон Чэпман, Оливер Смит, Роберт Хайнс, Энтони Аллен, Леон Дэвис, Майкл Кэссиди, Фрэнк Бэйкер

Описание: Расставив вокруг себя зажженные свечи, Френк открывает купленную им на восточном базаре старинную шкатулку. Легенда гласит, что живущие в ней демоны, могут доставить владельцу неописуемые наслаждения. Но Френк не мог и предположить, что эта шкатулка ключ к воротам из ада…

Качество: HDRip | BDRip 1080p
Формат: AVI
Видео кодек: XviD
Аудио кодек: AC3
Видео: 704x384 (1.83:1), 23.976 fps, XviD build 50 ~1846 kbps avg, 0.28 bit/pixel
Аудио: 48 kHz, AC3 Dolby Digital, 3/2 (L,C,R,l,r) + LFE ch, ~384 kbps


Автор рипа: Dean24





Общее
Полное имя : D:\Мои документы\Фильмы\Сайт\Hellraiser.HDRip.avi
Формат : AVI
Формат/Информация : Audio Video Interleave
Размер файла : 1,46 Гбайт
Продолжительность : 1 ч. 33 м.
Общий поток : 2240 Кбит/сек
Программа кодирования : VirtualDubMod 1.5.10.3 | (build 2550/release)
Библиотека кодирования : VirtualDubMod build 2550/release

Видео
Идентификатор : 0
Формат : MPEG-4 Visual
Профиль формата : Advanced Simple@L5
Параметр BVOP формата : 3
Параметр QPel формата : Нет
Параметр GMC формата : Без точки перехода
Параметр матрицы формата : Default (H.263)
Идентификатор кодека : XVID
Идентификатор кодека/Подсказка : XviD
Продолжительность : 1 ч. 33 м.
Битрейт : 1847 Кбит/сек
Ширина : 704 пикселя
Высота : 384 пикселя
Соотношение сторон : 1,85:1
Частота кадров : 23,976 кадра/сек
Цветовое пространство : YUV
Субдискретизация насыщенности : 4:2:0
Битовая глубина : 8 бит
Тип развёртки : Прогрессивная
Метод сжатия : С потерями
Бит/(Пиксели*Кадры) : 0.285
Размер потока : 1,20 Гбайт (82%)
Библиотека кодирования : XviD 1.2.1 (UTC 2008-12-04)

Аудио
Идентификатор : 1
Формат : AC-3
Формат/Информация : Audio Coding 3
Расширение режима : CM (complete main)
Параметр Endianness формата : Big
Идентификатор кодека : 2000
Продолжительность : 1 ч. 33 м.
Вид битрейта : Постоянный
Битрейт : 384 Кбит/сек
Каналы : 6 каналов
Расположение каналов : Front: L C R, Side: L R, LFE
Частота : 48,0 КГц
Битовая глубина : 16 бит
Метод сжатия : С потерями
Размер потока : 256 Мбайт (17%)
Выравнивание : Разделение по промежуткам
Продолжительность промежутка : 42 мс. (1,00 видеокадр)
Время предзагрузки промежутка : 500 мс.

pb.wtf



Скачать Восставший из ада через торрент http://i70.fastpic.ru/big/2015/0812/cc/77fceafc94878ac9ae79291d05faa2cc.jpg Скачать, смотреть онлайн Восставший из ада бесплантно в хорошем качестве Описание: Расставив вокруг себя зажженные свечи, Френк открывает купленную им на восточном базаре старинную шкатулку. Легенда гласит, что ... 8.9 10 8
Торрент: Зарегистрирован [2015-08-12 12:48] · скачан: 34 раз
Статус: √ проверено
Размер: 1.46 GB
Как cкачать? Как скачать Восставший из ада через торрент | UTorrent

% Раздел Тема Автор DL S | L
T Фильмы [HD 720p, 1080p] (Хороший звук DUB, MVO) [ 5.57 GB ] Восставший из ада 10: Приговор / Hellraiser: Judgment [2018 BDRip 1080p] MVO [Синема УС] bober100 Скачать
1 | 0
T Фильмы 2018 [DVDrip, WEB-DLRip, HDrip] (DUB, MVO) [ 1.84 GB ] Восставший из ада 10: Приговор / Hellraiser: Judgment [2018 BDRip-AVC] MVO DVO - ExKinoRay Enigma2010 Скачать
1 | 0
T Фильмы 2018 [DVDrip, WEB-DLRip, HDrip] (DUB, MVO) [ 2.11 GB ] Восставший из ада 10: Приговор / Hellraiser: Judgment [2018 BDRip ] MVO [HDrezka Studio] WorldSM Скачать
1 | 0
T Фильмы [HD 720p, 1080p] (Звук Cam, VO, DVO) [ 3.5 GB ] Восставший из ада 10: Приговор / Hellraiser: Judgment [2018 BDRip ] DVO [HiWay Grope] WorldSM Скачать
1 | 0
T Релизы по Парсеру [Игры, Сериалы и Фильмы и другое...] [ 1.46 GB ] Восставший из ада 10: Приговор / Hellraiser: Judgment [2018 HDRip] MVO -Lexx- Скачать
1 | 0
Фильмы с авторской озвучкой [ 1.67 GB ] Восставший из ада 6: Поиски ада / Hellraiser: Hellseeker [2002 детекти HDRip Авторский ] Dean24 Скачать
1 | 0
Сборники и Сиквелы (48-60 fps) [ 32.16 GB ] Восставший из ада: Антология / Hellraiser: Antology [1987-2010 BDRip-AVC HDRip-AVC 60fps MVO AVO] от R.G. HD-Films Tiberiumsun69 Скачать
1 | 0

28-11-2019 20:33  

Отключить всю рекламу на сайте

    Дорогой пользователь! Огромная просьба, поблагодарите релизера, оцените раздачу и оставьте свои комментарий, если Вы скачали Восставший из ада через торрент бесплатно!
    Комментировать посты могут только пользователи прошедшие не сложную регистрацию
    Показать сообщения:    

    Восставший из ада через торрент
    Скачать бесплатно Восставший из ада
    Восставший из ада скачать торрент
    Восставший из ада смотреть онлайн
    Cкачать фильм Восставший из ада бесплатно
    Восставший из ада скачать торрент в хорошем качестве
    Восставший из ада смотреть онлайн бесплатно в хорошем качестве


    Вы не можете начинать темы
    Вы не можете отвечать на сообщения
    Вы не можете редактировать свои сообщения
    Вы не можете удалять свои сообщения
    Вы не можете голосовать в опросах
    Вы не можете прикреплять файлы к сообщениям
    Вы можете скачивать файлы