новый адрес
Мега распродажа FORZA HORIZON 4 ULTIMATE+ВСЕ DLC+ОНЛАЙН всего за 499р. 349 руб. (супер цена). Внимание количество ограничено!!!

iTunes

1+1

iTunes

мы

iTunes

1

iTunes

Чернобыль

iTunes

Ральф против интернета

Лицензия

ПШазам

Лицензия

Оно 2

Лицензия

30
pack

ВАЖНО

!!Акция!!

Alien_RageХит недели

RePack

Resident Evil 21

ИГРА 18+

pack

RePack

jed

!!Акция!!

Alien_Rage

RePack

fifa19

RePack

Assassins Creed: Odyssey

RePack

NEED FOR SPEED™ PAYBACK

3 сезон

9 сезон

Бесстыжие 9 сезон

Все сериалы

все сериалы на PB.wtf

RePack

FAR CRY 5
Ребята, катастрофически не хватает 1900р. для оплаты серверов за Октябрь (всвязи с блокировками трафик упал в 3 раза), 1-2р., выручайте.
  

Кубанские казаки (Иван Пырьев) [1949, СССР, мюзикл, комедия, HDTVRip от AVP Studio] pb.wtf

Кубанские казаки через торрент pb.wtf

Размер: 745 MB | Добавлен: 4 года 3 мес. назад | Торрент скачан:15 раз
Скачать  

12-08-2015 18:46 Кубанские казаки Скачать торрент  

Кубанские казаки
Страна: СССР
Производство: Мосфильм

Жанр: мюзикл, комедия
Год выпуска: 1949
Продолжительность: 01:44:22

Перевод: Не требуется
Cубтитры: нет
Оригинальная аудиодорожка: русский

Режиссер: Иван Пырьев

В ролях:
Марина Ладынина, Сергей Лукьянов, Владимир Володин, Александр Хвыля, Сергей Блинников, Клара Лучко, Екатерина Савинова, Владлен Давыдов, Андрей Петров, Юрий Любимов, Борис Андреев, Елена Савицкая, Валентина Телегина, Владимир Дорофеев, Татьяна Говоркова...
Полный список актёров

Описание:
История любви председателей колхозов и героев труда Гордея Ворона и Галины Пересветовой разворачивается на фоне кипучей и радостной колхозной жизни, в которой и труд, и праздники выглядят как яркое, полное оптимизма зрелище. Это впечатление возникает во многом благодаря песням, которые после выхода фильма стали поистине народными.

Источник: HDTV 1080i
Качество видео: HDTVRip
Формат видео: AVI
Видео кодек: XviD
Аудио кодек: MP3
Видео: 576x432 (4:3), 25 fps, XviD ~ 861 kbps avg, 0.138 bit/pixel
Аудио: 48 kHz, MP3 2.0, 128 kbps

Раздача от:
Общее
Полное имя : Kubanskie.kazaki.1949.HDTVRip-745_[New-team]_by_AVP_Studio.avi
Формат : AVI
Формат/Информация : Audio Video Interleave
Размер файла : 745 Мбайт
Продолжительность : 1 ч. 44 м.
Общий поток : 998 Кбит/сек
Программа кодирования : VirtualDubMod 1.5.10.3 | www.virtualdub-fr.org || (build 2550/release)
Библиотека кодирования : VirtualDubMod build 2550/release

Видео
Идентификатор : 0
Формат : MPEG-4 Visual
Профиль формата : Advanced Simple@L5
Параметр BVOP формата : 1
Параметр QPel формата : Нет
Параметр GMC формата : Без точки перехода
Параметр матрицы формата : Выборочная
Идентификатор кодека : XVID
Идентификатор кодека/Подсказка : XviD
Продолжительность : 1 ч. 44 м.
Битрейт : 861 Кбит/сек
Ширина : 576 пикселей
Высота : 432 пикселя
Соотношение сторон : 4:3
Частота кадров : 25,000 кадров/сек
Цветовое пространство : YUV
Субдискретизация насыщенности : 4:2:0
Битовая глубина : 8 бит
Тип развёртки : Прогрессивная
Метод сжатия : С потерями
Бит/(Пиксели*Кадры) : 0.138
Размер потока : 643 Мбайт (86%)
Библиотека кодирования : XviD 73

Аудио
Идентификатор : 1
Формат : MPEG Audio
Версия формата : Version 1
Профиль формата : Layer 3
Идентификатор кодека : 55
Идентификатор кодека/Подсказка : MP3
Продолжительность : 1 ч. 44 м.
Вид битрейта : Постоянный
Битрейт : 128 Кбит/сек
Каналы : 2 канала
Частота : 48,0 КГц
Метод сжатия : С потерями
Размер потока : 95,6 Мбайт (13%)
Выравнивание : Соединение по промежуткам
Продолжительность промежутка : 40 мс. (1,00 видеокадр)
Время предзагрузки промежутка : 504 мс.
Библиотека кодирования : LAME3.99r
Настройки программы : -m s -V 4 -q 2 -lowpass 17 -b 128
pb.wtf



Скачать Кубанские казаки через торрент http://s017.radikal.ru/i425/1508/c6/955840aea7e7.png Скачать фильм Кубанские казаки через торрент бесплантно в хорошем качестве Описание:История любви председателей колхозов и героев труда Гордея Ворона и Галины Пересветовой разворачивается на фоне кипучей и ... 10 10 1
Торрент: Зарегистрирован [2015-08-12 18:46] · скачан: 15 раз
Статус: √ проверено
Размер: 745 MB
Как cкачать? Как скачать Кубанские казаки через торрент | qTorrent

% Раздел Тема Автор DL S | L
Кино СССР [ 1.46 GB ] Кубанские казаки [1949 СССР мюзикл HDTVRip-AVC от AVP Studio] AVP Studio Скачать
1 | 0
Кино СССР [ 1.46 GB ] Кубанские казаки [1949 СССР мюзикл HDTVRip от AVP Studio] AVP Studio Скачать
1 | 0


>> Регистрируемся здесь <<






Отзывы и комментарии о схеме читаем и пишем здесь: ---> Отзывы и комментарии о схеме

Новые благодарочки в телеграм довольных пользователей:
скриншот   скриншот   скриншот   скриншот   скриншот
    Дорогой пользователь! Огромная просьба, поблагодарите релизера, оцените раздачу и оставьте свои комментарий, если Вы скачали Кубанские казаки через торрент бесплатно! Внесите свою лепту в развитие PiratBit!
    Комментировать посты могут только пользователи прошедшие не сложную регистрацию
    Показать сообщения:    

    Кубанские казаки через торрент
    Скачать бесплатно Кубанские казаки
    Кубанские казаки скачать торрент
    Кубанские казаки смотреть онлайн
    Cкачать фильм Кубанские казаки бесплатно
    Кубанские казаки скачать торрент в хорошем качестве
    Кубанские казаки смотреть онлайн бесплатно в хорошем качестве


    Вы не можете начинать темы
    Вы не можете отвечать на сообщения
    Вы не можете редактировать свои сообщения
    Вы не можете удалять свои сообщения
    Вы не можете голосовать в опросах
    Вы не можете прикреплять файлы к сообщениям
    Вы можете скачивать файлы