новый адрес
Ссылка на приватное зеркало всего за 1$. Внимание количество ограничено!!!

iTunes

1+1

iTunes

мы

iTunes

1

iTunes

Чернобыль

iTunes

Ральф против интернета

Лицензия

ПШазам

Лицензия

Оно 2

Лицензия

30
pack

Вам бонус

ВАЖНО

!!Акция!!

Alien_RageХит недели

RePack

Resident Evil 21

ИГРА 18+

pack

RePack

jed

!!Акция!!

Alien_Rage

RePack

fifa19

RePack

Assassins Creed: Odyssey

RePack

NEED FOR SPEED™ PAYBACK

3 сезон

9 сезон

Бесстыжие 9 сезон

Все сериалы

все сериалы на PB.wtf

RePack

FAR CRY 5
Ребята, катастрофически не хватает 1900р. для оплаты серверов за Октябрь (всвязи с блокировками трафик упал в 3 раза), 1-2р., выручайте.
  

Кубанские казаки (Иван Пырьев) [1949, СССР, мюзикл, комедия, HDTVRip-AVC от AVP Studio] pb.wtf

Кубанские казаки через торрент pb.wtf

Размер: 1.46 GB | Добавлен: 4 года 3 мес. назад | Торрент скачан:39 раз
Скачать  

12-08-2015 18:48 Кубанские казаки Скачать торрент  

Кубанские казаки
Страна: СССР
Производство: Мосфильм

Жанр: мюзикл, комедия
Год выпуска: 1949
Продолжительность: 01:44:22

Перевод: Не требуется
Cубтитры: нет
Оригинальная аудиодорожка: русский

Режиссер: Иван Пырьев

В ролях:
Марина Ладынина, Сергей Лукьянов, Владимир Володин, Александр Хвыля, Сергей Блинников, Клара Лучко, Екатерина Савинова, Владлен Давыдов, Андрей Петров, Юрий Любимов, Борис Андреев, Елена Савицкая, Валентина Телегина, Владимир Дорофеев, Татьяна Говоркова...
Полный список актёров

Описание:
История любви председателей колхозов и героев труда Гордея Ворона и Галины Пересветовой разворачивается на фоне кипучей и радостной колхозной жизни, в которой и труд, и праздники выглядят как яркое, полное оптимизма зрелище. Это впечатление возникает во многом благодаря песням, которые после выхода фильма стали поистине народными.

Источник: HDTV 1080i
Качество видео: HDTVRip-AVC
Формат видео: MKV
Видео кодек: H.264
Аудио кодек: AC3
Видео: 768x576 (4:3), 25 fps, H264 ~ 1807 kbps avg, 0.163 bit/pixel
Аудио: 48 kHz, Dolby Digital AC3 2.0, 192 kbps

Раздача от:
Общее
Полное имя : Kubanskie.kazaki.1949.HDTVRip-AVC_[New-team]_by_AVP_Studio.mkv
Формат : Matroska
Версия формата : Version 2
Размер файла : 1,46 Гбайт
Продолжительность : 1 ч. 44 м.
Общий поток : 2001 Кбит/сек
Дата кодирования : UTC 2015-08-11 23:40:15
Программа кодирования : mkvmerge v6.1.0 ('Old Devil') built on Mar 4 2013 09:10:42
Библиотека кодирования : libebml v1.3.0 + libmatroska v1.4.0

Видео
Идентификатор : 1
Формат : AVC
Формат/Информация : Advanced Video Codec
Профиль формата : High@L4.1
Параметр CABAC формата : Да
Параметр ReFrames формата : 8 кадров
Идентификатор кодека : V_MPEG4/ISO/AVC
Продолжительность : 1 ч. 44 м.
Битрейт : 1807 Кбит/сек
Ширина : 768 пикселей
Высота : 576 пикселей
Соотношение сторон : 4:3
Режим частоты кадров : Постоянный
Частота кадров : 25,000 кадров/сек
Цветовое пространство : YUV
Субдискретизация насыщенности : 4:2:0
Битовая глубина : 8 бит
Тип развёртки : Прогрессивная
Бит/(Пиксели*Кадры) : 0.163
Размер потока : 1,29 Гбайт (88%)
Библиотека кодирования : x264 core 130 r2273 b3065e6
Настройки программы : cabac=1 / ref=8 / deblock=1:-3:-2 / analyse=0x3:0x113 / me=umh / subme=10 / psy=1 / psy_rd=1.00:0.05 / mixed_ref=1 / me_range=32 / chroma_me=1 / trellis=2 / 8x8dct=1 / cqm=0 / deadzone=21,11 / fast_pskip=1 / chroma_qp_offset=-3 / threads=6 / lookahead_threads=1 / sliced_threads=0 / nr=0 / decimate=0 / interlaced=0 / bluray_compat=0 / constrained_intra=0 / bframes=8 / b_pyramid=2 / b_adapt=2 / b_bias=0 / direct=3 / weightb=1 / open_gop=0 / weightp=2 / keyint=250 / keyint_min=25 / scenecut=40 / intra_refresh=0 / rc_lookahead=40 / rc=2pass / mbtree=1 / bitrate=1807 / ratetol=1.0 / qcomp=0.60 / qpmin=0 / qpmax=69 / qpstep=4 / cplxblur=20.0 / qblur=0.5 / ip_ratio=1.40 / aq=1:1.00
Default : Да
Forced : Нет

Аудио
Идентификатор : 2
Формат : AC-3
Формат/Информация : Audio Coding 3
Расширение режима : CM (complete main)
Параметр Endianness формата : Big
Идентификатор кодека : A_AC3
Продолжительность : 1 ч. 44 м.
Вид битрейта : Постоянный
Битрейт : 192 Кбит/сек
Каналы : 2 канала
Расположение каналов : Front: L R
Частота : 48,0 КГц
Метод сжатия : С потерями
Размер потока : 143 Мбайт (10%)
Default : Да
Forced : Нет
pb.wtf



Скачать Кубанские казаки через торрент http://s017.radikal.ru/i425/1508/c6/955840aea7e7.png Скачать фильм Кубанские казаки через торрент бесплантно в хорошем качестве Описание:История любви председателей колхозов и героев труда Гордея Ворона и Галины Пересветовой разворачивается на фоне кипучей и ... 10 10 3
Торрент: Зарегистрирован [2015-08-12 18:48] · скачан: 39 раз
Статус: √ проверено
Размер: 1.46 GB
Как cкачать? Как скачать Кубанские казаки через торрент | qTorrent

% Раздел Тема Автор DL S | L
Кино СССР [ 745 MB ] Кубанские казаки [1949 СССР мюзикл HDTVRip от AVP Studio] AVP Studio Скачать
1 | 0
Кино СССР [ 1.46 GB ] Кубанские казаки [1949 СССР мюзикл HDTVRip от AVP Studio] AVP Studio Скачать
1 | 0
    Дорогой пользователь! Огромная просьба, поблагодарите релизера, оцените раздачу и оставьте свои комментарий, если Вы скачали Кубанские казаки через торрент бесплатно! Внесите свою лепту в развитие PiratBit!
    Комментировать посты могут только пользователи прошедшие не сложную регистрацию
    Показать сообщения:    

    Кубанские казаки через торрент
    Скачать бесплатно Кубанские казаки
    Кубанские казаки скачать торрент
    Кубанские казаки смотреть онлайн
    Cкачать фильм Кубанские казаки бесплатно
    Кубанские казаки скачать торрент в хорошем качестве
    Кубанские казаки смотреть онлайн бесплатно в хорошем качестве


    Вы не можете начинать темы
    Вы не можете отвечать на сообщения
    Вы не можете редактировать свои сообщения
    Вы не можете удалять свои сообщения
    Вы не можете голосовать в опросах
    Вы не можете прикреплять файлы к сообщениям
    Вы можете скачивать файлы