Ссылка на приватное зеркало всего за 1$. Внимание количество ограничено!!!

OK

1+1

iTunes

мы

OK

1

WEB-DLRip

Джокер

Пифагор

Ведьмак / The Witcher сериал

iTunes

ПШазам

ОК

Оно 2

iTunes

30
pack

Вам бонус

ВАЖНО

!!Акция!!

Alien_RageХит недели

RePack

Resident Evil 21

ИГРА 18+

pack

RePack

jed

RePack

fifa19

RePack

Assassins Creed: Odyssey

RePack

NEED FOR SPEED™ PAYBACK

4 сезон

9 сезон

Бесстыжие 9 сезон

Все сериалы

все сериалы на PB.wtf

RePack

FAR CRY 5
  

Ганмен / The Gunman (Пьер Морель / Pierre Morel) [2015, боевик, триллер, драма, BDRip-AVC от potroks] Dub pb.wtf

Ганмен через торрент pb.wtf

Размер: 1.46 GB | Добавлен: 4 года 5 мес. назад | Торрент скачан:773 раза
Скачать  

12-08-2015 18:49 Ганмен Скачать торрент  

Ганмен / The Gunman
«На прицеле. На грани. На взводе»
Год выпуска: 2015
Страна: США, Испания, Великобритания, Франция / Silver Pictures, Studio Canal...
Жанр: боевик, триллер, драма, криминал, детектив
Продолжительность: 01:55:40
Перевод: Дубляж [iTunes]
Навигация по главам: есть
Режиссер: Пьер Морель / Pierre Morel
В ролях:

Шон Пенн (Terrier), Хавьер Бардем (Felix), Рэй Уинстон (Stanley), Жазмин Тринка (Annie), Идрис Эльба (Barnes), Марк Райлэнс (Cox), Петер Францен (Reiniger), Билли Биллинхэм (Reed), Дэниэл Адегбойега (Bryson), Адэ Ойефесо (Eugene), Алехандро Таванте (Bullfighter), Florian Barisey (Village Boy)
Описание: Джим Террье - ганмен, международный наемник высочайшего класса. Но когда в Компании начинают подчищать хвосты, Джим сам становится мишенью. Чтобы выжить, Джим угрожает обнародовать имеющийся у него компромат и обращается к бывшему напарнику Феликсу. Однако у Феликса есть свои резоны желать, чтобы Джим Террье исчез из его жизни. Это Энни - женщина, которую они оба любят. За Джимом начинается смертельная охота по всей Европе, и у него не остается другого выбора, кроме как дать бой - один против всех.

Качество: BDRip-AVC
Формат: MKV
Видео кодек: AVC
Аудио кодек: AC3
Видео: AVC, 984x410 (2.40:1), 1424 kbps, 23,976 fps, 0,147 bit/pixel
Аудио: AC3 / 5.1 / 48 kHz / 384 kbps / 16 bit
Релиз группы:
Автор рипа: potroks

Код:

General
Unique ID                                : 236529934547434044297374885075684324425 (0xB1F20224769A09189C8AE47B18467449)
Complete name                            : N:\Боевик\Ganmen.2015.RUS.BDRip.x264.-HELLYWOOD.mkv
Format                                   : Matroska
Format version                           : Version 4 / Version 2
File size                                : 1.46 GiB
Duration                                 : 1h 55mn
Overall bit rate                         : 1 810 Kbps
Movie name                               : The Gunman (2015) - HELLYWOOD
Encoded date                             : UTC 2015-08-12 17:36:17
Writing application                      : mkvmerge v5.9.0 ('On The Loose') built on Dec 15 2012 16:39:58
Writing library                          : libebml v1.3.0 + libmatroska v1.4.0

Video
ID                                       : 1
Format                                   : AVC
Format/Info                              : Advanced Video Codec
Format profile                           : High@L4.1
Format settings, CABAC                   : Yes
Format settings, ReFrames                : 12 frames
Codec ID                                 : V_MPEG4/ISO/AVC
Duration                                 : 1h 55mn
Bit rate                                 : 1 424 Kbps
Width                                    : 984 pixels
Height                                   : 410 pixels
Display aspect ratio                     : 2.40:1
Frame rate                               : 23.976 fps
Color space                              : YUV
Chroma subsampling                       : 4:2:0
Bit depth                                : 8 bits
Scan type                                : Progressive
Bits/(Pixel*Frame)                       : 0.147
Stream size                              : 1.12 GiB (77%)
Title                                    : potroks
Writing library                          : x264 core 146 r2538 121396c
Encoding settings                        : cabac=1 / ref=12 / deblock=1:-2:-2 / analyse=0x3:0x113 / me=umh / subme=11 / psy=1 / psy_rd=1.02:0.04 / mixed_ref=1 / me_range=56 / chroma_me=1 / trellis=2 / 8x8dct=1 / cqm=0 / deadzone=21,11 / fast_pskip=0 / chroma_qp_offset=-3 / threads=9 / lookahead_threads=2 / sliced_threads=0 / nr=0 / decimate=1 / interlaced=0 / bluray_compat=0 / constrained_intra=0 / bframes=13 / b_pyramid=2 / b_adapt=2 / b_bias=0 / direct=3 / weightb=1 / open_gop=0 / weightp=2 / keyint=250 / keyint_min=23 / scenecut=40 / intra_refresh=0 / rc_lookahead=60 / rc=2pass / mbtree=0 / bitrate=1424 / ratetol=1.0 / qcomp=0.70 / qpmin=0 / qpmax=69 / qpstep=4 / cplxblur=20.0 / qblur=0.5 / vbv_maxrate=14000 / vbv_bufsize=14000 / nal_hrd=none / filler=0 / ip_ratio=1.35 / pb_ratio=1.30 / aq=1:0.80
Language                                 : English
Default                                  : Yes
Forced                                   : No

Audio
ID                                       : 2
Format                                   : AC-3
Format/Info                              : Audio Coding 3
Mode extension                           : CM (complete main)
Codec ID                                 : A_AC3
Duration                                 : 1h 55mn
Bit rate mode                            : Constant
Bit rate                                 : 384 Kbps
Channel(s)                               : 6 channels
Channel positions                        : Front: L C R, Side: L R, LFE
Sampling rate                            : 48.0 KHz
Bit depth                                : 16 bits
Compression mode                         : Lossy
Stream size                              : 318 MiB (21%)
Title                                    : Dub | DD 5.1 @ 384 kbps - iTunes
Language                                 : Russian
Default                                  : Yes
Forced                                   : No

Menu
00:00:00.000                             : en:00:00:00.000
00:04:48.747                             : en:00:04:48.747
00:10:29.963                             : en:00:10:29.963
00:14:22.987                             : en:00:14:22.987
00:18:00.788                             : en:00:18:00.788
00:23:17.396                             : en:00:23:17.396
00:27:53.130                             : en:00:27:53.130
00:34:14.886                             : en:00:34:14.886
00:39:51.139                             : en:00:39:51.139
00:45:51.582                             : en:00:45:51.582
00:50:19.934                             : en:00:50:19.934
00:58:10.404                             : en:00:58:10.404
01:04:37.165                             : en:01:04:37.165
01:08:27.478                             : en:01:08:27.478
01:14:44.230                             : en:01:14:44.230
01:21:37.726                             : en:01:21:37.726
01:31:18.223                             : en:01:31:18.223
01:38:39.330                             : en:01:38:39.330
01:45:34.370                             : en:01:45:34.370
01:49:15.841                             : en:01:49:15.841

pb.wtf



Скачать Ганмен через торрент http://i72.fastpic.ru/big/2015/0812/37/89521952dba9ef16d7cef2d25171ac37.png Скачать фильм Ганмен через торрент бесплантно в хорошем качестве Описание: Джим Террье - ганмен, международный наемник высочайшего класса. Но когда в Компании начинают подчищать хвосты, Джим сам ... 9.4 10 21
Торрент: Зарегистрирован [2015-08-12 18:49] · скачан: 773 раз
Статус: √ проверено
Размер: 1.46 GB
Как cкачать? Как скачать Ганмен через торрент | qTorrent

% Раздел Тема Автор DL S | L
Фильмы 2015 [DVDrip, WEB-DLRip, HDrip] [ 1.46 GB ] Ганмен / The Gunman [2015 BDRip] Dub Twi7ter Скачать
1 | 0
Фильмы [HD 720p, 1080p] (Хороший звук DUB, MVO) [ 5.84 GB ] Ганмен / The Gunman [2015 BDRip 720p] DUB AVO potroks Скачать
1 | 0
Фильмы 2015 [DVDrip, WEB-DLRip, HDrip] [ 2.18 GB ] Ганмен / The Gunman [2015 BDRip-AVC] Dub potroks Скачать
1 | 0

28-11-2019 20:33  

Отключить всю рекламу на сайте

15-08-2015 15:37 Ганмен Скачать торрент  

Норм фильм посмотреть на один раз можно. Скачивайте и смотрите не пожалеете.pb.wtf



    Дорогой пользователь! Огромная просьба, поблагодарите релизера, оцените раздачу и оставьте свои комментарий, если Вы скачали Ганмен через торрент бесплатно! Внесите свою лепту в развитие PiratBit!
    Комментировать посты могут только пользователи прошедшие не сложную регистрацию
    Показать сообщения:    

    Ганмен через торрент
    Скачать бесплатно Ганмен
    Ганмен скачать торрент
    Ганмен смотреть онлайн
    Cкачать фильм Ганмен бесплатно
    Ганмен скачать торрент в хорошем качестве
    Ганмен смотреть онлайн бесплатно в хорошем качестве


    Вы не можете начинать темы
    Вы не можете отвечать на сообщения
    Вы не можете редактировать свои сообщения
    Вы не можете удалять свои сообщения
    Вы не можете голосовать в опросах
    Вы не можете прикреплять файлы к сообщениям
    Вы можете скачивать файлы