Ссылка на приватное зеркало нашего сайта всего за 1$. Внимание количество ограничено!!!

2 сезон

iTunes

1 сезон

1

iTunes

iTunes

iTunes

1 сезон

RePack

30

ИГРА 18+

pack

ВАЖНО

!!Акция!!

Alien_RageХит недели

RePack

MK11
pack

Забери бонус

RePack

jed

!!Акция!!

Alien_Rage

RePack

fifa19

RePack

Assassins Creed: Odyssey

RePack

NEED FOR SPEED™ PAYBACK

4 сезон

9 сезон

Бесстыжие 9 сезон

Все сериалы

все сериалы на PB.wtf

RePack

FAR CRY 5
  

Луни Тюнз: кролик в бегах / Looney Tunes: Rabbit Run (Джефф Сьергей) [2015 г., Мультфильм, комедия, семейный, WEB-DLRip, Профессиональный многоголосый] pb.wtf

Луни Тюнз: кролик в бегах через торрент pb.wtf

Размер: 1.37 GB | Добавлен: 5 лет 2 мес. назад | Торрент скачан:938 раз
Скачать  

13-08-2015 08:13 Луни Тюнз: кролик в бегах Скачать торрент  

Луни Тюнз: кролик в бегах / Looney Tunes: Rabbit Run

Год выпуска: 2015

Страна: США, Warner Bros. Animation

Жанр: Мультфильм, комедия, семейный

Продолжительность: 01:14:26

Перевод: Профессиональный многоголосый [Официальный звук]




Режиссер: Джефф Сьергей

В ролях: Фред Армисен, Джефф Бергман, Морис ЛаМарш, Рэйчел Дугай, Джим Рэш, Билли Уэст

Описание: Сюжет мультфильма начинается в центральной Мексике. В штабе петуха Фоггорна Леггорна черепаха Сесил наблюдает за объектом – редчайшим цветком флоро оккульто, который расцветает раз в 200 лет и служит величайшим в мире оружием. Леггорн собирается провести спецоперацию по захвату магического цветка, но в самый ответственный момент кто-то похищает растение…




Качество: WEB-DLRip

Формат: AVI

Видео кодек: XviD

Аудио кодек: AC3

Видео: XviD, 720x400, 23,976 fps, 2043 Kbps

Аудио#1: Русский, AC3, 48,0 КГц, 2 ch, 192 Kbps

Аудио#2: Английский, AC3, 48,0 КГц, 6 ch, 384 Kbps

Формат : AVI
Формат/Информация : Audio Video Interleave
Размер файла : 1,37 Гбайт
Продолжительность : 1 ч. 14 м.
Общий поток : 2633 Кбит/сек
Программа кодирования : VirtualDubMod 1.5.10.2 (build 2540/release)
Библиотека кодирования : VirtualDubMod build 2540/release

Видео
Идентификатор : 0
Формат : MPEG-4 Visual
Профиль формата : Advanced Simple@L5
Параметр BVOP формата : 2
Параметр QPel формата : Нет
Параметр GMC формата : Без точки перехода
Параметр матрицы формата : Default (MPEG)
Идентификатор кодека : XVID
Идентификатор кодека/Подсказка : XviD
Продолжительность : 1 ч. 14 м.
Битрейт : 2044 Кбит/сек
Ширина : 720 пикселей
Высота : 400 пикселей
Соотношение сторон : 16:9
Частота кадров : 23,976 кадра/сек
Цветовое пространство : YUV
Субдискретизация насыщенности : 4:2:0
Битовая глубина : 8 бит
Тип развёртки : Прогрессивная
Метод сжатия : С потерями
Бит/(Пиксели*Кадры) : 0.296
Размер потока : 1,06 Гбайт (78%)
Библиотека кодирования : XviD 1.2.1 (UTC 2008-12-04)

Аудио #1
Идентификатор : 1
Формат : AC-3
Формат/Информация : Audio Coding 3
Расширение режима : CM (complete main)
Параметр Endianness формата : Big
Идентификатор кодека : 2000
Продолжительность : 1 ч. 14 м.
Вид битрейта : Постоянный
Битрейт : 192 Кбит/сек
Каналы : 2 канала
Расположение каналов : Front: L R
Частота : 48,0 КГц
Битовая глубина : 16 бит
Метод сжатия : С потерями
Размер потока : 102 Мбайт (7%)
Выравнивание : Разделение по промежуткам
Продолжительность промежутка : 42 мс. (1,00 видеокадр)
Время предзагрузки промежутка : 500 мс.

Аудио #2
Идентификатор : 2
Формат : AC-3
Формат/Информация : Audio Coding 3
Расширение режима : CM (complete main)
Параметр Endianness формата : Big
Идентификатор кодека : 2000
Продолжительность : 1 ч. 14 м.
Вид битрейта : Постоянный
Битрейт : 384 Кбит/сек
Каналы : 6 каналов
Расположение каналов : Front: L C R, Side: L R, LFE
Частота : 48,0 КГц
Битовая глубина : 16 бит
Метод сжатия : С потерями
Размер потока : 204 Мбайт (15%)
Выравнивание : Разделение по промежуткам
Продолжительность промежутка : 42 мс. (1,00 видеокадр)
Время предзагрузки промежутка : 500 мс.

pb.wtf



Скачать Луни Тюнз: кролик в бегах через торрент http://pic.kartinco.top/images/11/5tys2.jpg Скачать фильм Луни Тюнз: кролик в бегах через торрент бесплантно в хорошем качестве Описание: Сюжет мультфильма начинается в центральной Мексике. В штабе петуха Фоггорна Леггорна черепаха Сесил наблюдает за объектом – ... 9.3 10 34
Торрент: Зарегистрирован [2015-08-13 08:13] · скачан: 938 раз
Статус: T временная
Размер: 1.37 GB
Как cкачать? Как скачать Луни Тюнз: кролик в бегах через торрент | qTorrent

28-11-2019 20:33  

Отключить всю рекламу на сайте

15-08-2015 17:24 Луни Тюнз: кролик в бегах Скачать торрент  

Что за ахинея? куда скатились WB? весь мультик тянут Сем и Даффиpb.wtf



27-01-2016 10:08 Луни Тюнз: кролик в бегах Скачать торрент  

dog спасибо, классный мультик помогу с раздачей.pb.wtf



    Дорогой пользователь! Огромная просьба, поблагодарите релизера, оцените раздачу и оставьте свои комментарий, если Вы скачали Луни Тюнз: кролик в бегах через торрент бесплатно! Внесите свою лепту в развитие PiratBit!
    Комментировать посты могут только пользователи прошедшие не сложную регистрацию
    Показать сообщения:    

    Луни Тюнз: кролик в бегах через торрент
    Скачать бесплатно Луни Тюнз: кролик в бегах
    Луни Тюнз: кролик в бегах скачать торрент
    Луни Тюнз: кролик в бегах смотреть онлайн
    Cкачать фильм Луни Тюнз: кролик в бегах бесплатно
    Луни Тюнз: кролик в бегах скачать торрент в хорошем качестве
    Луни Тюнз: кролик в бегах смотреть онлайн бесплатно в хорошем качестве


    Вы не можете начинать темы
    Вы не можете отвечать на сообщения
    Вы не можете редактировать свои сообщения
    Вы не можете удалять свои сообщения
    Вы не можете голосовать в опросах
    Вы не можете прикреплять файлы к сообщениям
    Вы можете скачивать файлы