>

7.4

iTunes

7.4

2 сезон

9.4

1 сезон

1

7.4

2 сезон

7.2

iTunes

6.0

MVO

13

6.1

iTunes

8.3

Пиратка

30

ULTIMATE

pack

9.9

Лицензия

ВАЖНО

ИГРА 18+

pack

7.3

RePack

MK11

7.7

RePack

jed

7.8

RePack

fifa19

8.5

RePack

RDR2

RePack

NEED FOR SPEED™ PAYBACK

1 сезон

9 сезон

Бесстыжие 9 сезон

Все сериалы

все сериалы на PB.wtf

RePack

FAR CRY 5

Anonymous, доброе утро, мы катастрофически не успеваем собрать деньги на оплату серверов, помогите нам пожалуйста 5,10,15р., для нас важна любая помощь . В качестве благодарности мы отключим Вам всю рекламу на сайте (укажите свой ник в строку Ваше имя)!

×
  
Magnet ссылка

Восставший из ада 2 / Hellbound: Hellraiser II (Тони Рэндел) [1988 г., ужасы, триллер, HDRip, Авторский (Гаврилов)] pb.wtf

Восставший из ада 2 через торрент pb.wtf

Размер: 1.46 GB | Добавлен: 6 лет 5 мес. назад | Торрент скачан:27 раз
Смотреть онлайн Восставший из ада 2 | Скачать    Ребята, помогите собрать деньги на оплату серверов!!!

13-08-2015 08:16 Восставший из ада 2 Скачать торрент  

Восставший из ада 2 / Hellbound: Hellraiser IIГод выпуска: 1988
Страна: Великобритания
Жанр: ужасы, триллер
Продолжительность: 01:39:03
Перевод: Авторский (Гаврилов)
Субтитры: Нет

Режиссер: Тони Рэндел
Продюссер: Кристофер Фигг, Клайв Баркер, Дэвид Баррон
Сценарий: Питер Аткинс, Клайв Баркер

Премьера в мире: 9 сентября 1988



В ролях: Клэр Хиггинс, Эшли Лоуренс, Кеннет Крэнэм, Имоджен Бурман, Шон Чэпман, Уильям Хоуп, Даг Брэдли, Барби Вильде, Саймон Бэмфорд, Николас Винс

Описание: В наш мир возвращается мачеха Кристины Джулия, сгинувшая в геенне огненной в финале первой части фильма. Для восстановления своего физического облика ей приходится использовать те же малоприглядные средства, что и, в своё время, Фрэнку. В это же время Кристина, содержащаяся в психиатрической лечебнице, решает спасти своего томящегося в потусторонней неволе отца, для чего ей снова необходимо проникнуть за ту не всегда видимую и не всегда прочную грань, которая отделяет мир живых от мира не очень живых... Экранизация одноименной книги Клайва Баркера.

Качество: HDRip | BDRip 720p
Формат: AVI
Видео кодек: XviD
Аудио кодек: AC3
Видео: 704x384 (1.83:1), 23.976 fps, XviD build 50 ~1719 kbps avg, 0.27 bit/pixel
Аудио: 48 kHz, AC3 Dolby Digital, 3/2 (L,C,R,l,r) + LFE ch, ~384 kbps


Автор рипа: Dean24





Общее
Полное имя : D:\Мои документы\Фильмы\Сайт\Hellbound.Hellraiser.II.HDRip.avi
Формат : AVI
Формат/Информация : Audio Video Interleave
Размер файла : 1,46 Гбайт
Продолжительность : 1 ч. 39 м.
Общий поток : 2113 Кбит/сек
Программа кодирования : VirtualDubMod 1.5.10.3 | (build 2550/release)
Библиотека кодирования : VirtualDubMod build 2550/release

Видео
Идентификатор : 0
Формат : MPEG-4 Visual
Профиль формата : Advanced Simple@L5
Параметр BVOP формата : 3
Параметр QPel формата : Нет
Параметр GMC формата : Без точки перехода
Параметр матрицы формата : Default (H.263)
Идентификатор кодека : XVID
Идентификатор кодека/Подсказка : XviD
Продолжительность : 1 ч. 39 м.
Битрейт : 1720 Кбит/сек
Ширина : 704 пикселя
Высота : 384 пикселя
Соотношение сторон : 1,85:1
Частота кадров : 23,976 кадра/сек
Цветовое пространство : YUV
Субдискретизация насыщенности : 4:2:0
Битовая глубина : 8 бит
Тип развёртки : Прогрессивная
Метод сжатия : С потерями
Бит/(Пиксели*Кадры) : 0.265
Размер потока : 1,19 Гбайт (81%)
Библиотека кодирования : XviD 1.2.1 (UTC 2008-12-04)

Аудио
Идентификатор : 1
Формат : AC-3
Формат/Информация : Audio Coding 3
Расширение режима : CM (complete main)
Параметр Endianness формата : Big
Идентификатор кодека : 2000
Продолжительность : 1 ч. 39 м.
Вид битрейта : Постоянный
Битрейт : 384 Кбит/сек
Каналы : 6 каналов
Расположение каналов : Front: L C R, Side: L R, LFE
Частота : 48,0 КГц
Битовая глубина : 16 бит
Метод сжатия : С потерями
Размер потока : 272 Мбайт (18%)
Выравнивание : Разделение по промежуткам
Продолжительность промежутка : 42 мс. (1,00 видеокадр)
Время предзагрузки промежутка : 500 мс.

pb.wtf



Скачать Восставший из ада 2 через торрент http://i71.fastpic.ru/big/2015/0813/d3/fe136f813023d701b060a074851e12d3.jpg Скачать, смотреть онлайн Восставший из ада 2 бесплантно в хорошем качестве Описание: В наш мир возвращается мачеха Кристины Джулия, сгинувшая в геенне огненной в финале первой части фильма. Для восстановления ... 9.5 10 4
Info! Золотая раздача, скачанное не засчитывается.
Торрент: Зарегистрирован [2015-08-13 08:16] · скачан: 27 раз
Статус: √ проверено
Размер: 1.46 GB
Как cкачать? Как скачать Восставший из ада 2 через торрент | UTorrent

28-11-2019 20:33  

Отключить всю рекламу на сайте

    Дорогой пользователь! Огромная просьба, поблагодарите релизера, оцените раздачу и оставьте свои комментарий, если Вы скачали Восставший из ада 2 через торрент бесплатно!
    Комментировать посты могут только пользователи прошедшие не сложную регистрацию
    Показать сообщения:    

    Восставший из ада 2 через торрент
    Скачать бесплатно Восставший из ада 2
    Восставший из ада 2 скачать торрент
    Восставший из ада 2 смотреть онлайн
    Cкачать фильм Восставший из ада 2 бесплатно
    Восставший из ада 2 скачать торрент в хорошем качестве
    Восставший из ада 2 смотреть онлайн бесплатно в хорошем качестве


    Вы не можете начинать темы
    Вы не можете отвечать на сообщения
    Вы не можете редактировать свои сообщения
    Вы не можете удалять свои сообщения
    Вы не можете голосовать в опросах
    Вы не можете прикреплять файлы к сообщениям
    Вы можете скачивать файлы