Ссылка на приватное зеркало нашего сайта всего за 1$. Внимание количество ограничено!!!

2 сезон

iTunes

1 сезон

1

iTunes

iTunes

iTunes

1 сезон

RePack

30

ИГРА 18+

pack

ВАЖНО

!!Акция!!

Alien_RageХит недели

RePack

MK11
pack

Забери бонус

RePack

jed

!!Акция!!

Alien_Rage

RePack

fifa19

RePack

Assassins Creed: Odyssey

RePack

NEED FOR SPEED™ PAYBACK

4 сезон

9 сезон

Бесстыжие 9 сезон

Все сериалы

все сериалы на PB.wtf

RePack

FAR CRY 5
  

Золушка (Кеннет Брана / Kenneth Branagh) [2015, фэнтези, драма, мелодрама, BDRip 720p от potroks] DUB Лицензия pb.wtf

Золушка через торрент pb.wtf

Размер: 4.37 GB | Добавлен: 5 лет 2 мес. назад | Торрент скачан:414 раз
Скачать  

13-08-2015 10:33 Золушка Скачать торрент  

Золушка / Cinderella
«Midnight is just the beginning»
Год выпуска: 2015
Страна: США, Великобритания / Walt Disney Pictures...
Жанр: фэнтези, драма, мелодрама, семейный
Продолжительность: 01:45:22
Перевод: Дубляж [лицензия BD EUR]
Субтитры: русские (полные + форс.), английские
Навигация по главам: есть
Режиссер: Кеннет Брана / Kenneth Branagh
В ролях:

Лили Джеймс (Cinderella), Кейт Бланшетт (Stepmother), Ричард Мэдден (Prince), Хелена Бонем Картер (Fairy Godmother), Нонсо Анози (Captain), Стеллан Скарсгард (Grand Duke), Софи МакШера (Drisella), Холлидей Грейнджер (Anastasia), Дерек Джекоби (King), Бен Чаплин (Ella's Father), Хейли Этвелл (Ella's Mother), Роб Брайдон (Master Phineus)
Описание: Отец молодой девушки по имени Элла, овдовев, женится во второй раз, и вскоре Элла оказывается один на один с жадными и завистливыми новыми родственницами - мачехой Леди Тремэйн и ее дочерьми - Анастасией и Дризеллой. Из хозяйки дома она превращается в служанку, вечно испачканную золой, за что и получает от своих сварливых сводных сестриц прозвище - Золушка. Несмотря на злоключения, выпавшие на ее долю, Золушка не отчаивается, ведь даже в самые тяжелые моменты находится что-то, что помогает ей думать о хорошем: например, случайная встреча на лесной тропинке с прекрасным юношей. Элла даже не предполагает, что встретилась с самим принцем, и что вскоре Фея-крестная навсегда поменяет её жизнь к лучшему.

Качество: BDRip 720p
Формат: MKV
Видео кодек: AVC
Аудио кодек: AC3
Видео: AVC, 1280x536 (2.40:1), 4661 kbps, 23,976 fps, 0,283 bit/pixel
Аудио №1: AC3 / 5.1 / 48 kHz / 640 kbps / 16 bit | RUS
Аудио №2: AC3 / 5.1 / 48 kHz / 640 kbps / 16 bit | ENG
Релиз группы:
Автор рипа: potroks

Код:

General
Unique ID                                : 196666239540251443323470652949705822242 (0x93F48A3C008DA923B0B67DDDA4C09022)
Complete name                            : N:\Фэнтези\Zolushka.2015.DUAL.BDRip.720p.-HELLYWOOD.mkv
Format                                   : Matroska
Format version                           : Version 4 / Version 2
File size                                : 4.37 GiB
Duration                                 : 1h 45mn
Overall bit rate                         : 5 940 Kbps
Movie name                               : Cinderella (2015) - HELLYWOOD
Encoded date                             : UTC 2015-08-13 10:21:28
Writing application                      : mkvmerge v5.9.0 ('On The Loose') built on Dec 15 2012 16:39:58
Writing library                          : libebml v1.3.0 + libmatroska v1.4.0

Video
ID                                       : 1
Format                                   : AVC
Format/Info                              : Advanced Video Codec
Format profile                           : High@L4.1
Format settings, CABAC                   : Yes
Format settings, ReFrames                : 9 frames
Codec ID                                 : V_MPEG4/ISO/AVC
Duration                                 : 1h 45mn
Bit rate                                 : 4 661 Kbps
Width                                    : 1 280 pixels
Height                                   : 536 pixels
Display aspect ratio                     : 2.40:1
Frame rate                               : 23.976 fps
Color space                              : YUV
Chroma subsampling                       : 4:2:0
Bit depth                                : 8 bits
Scan type                                : Progressive
Bits/(Pixel*Frame)                       : 0.283
Stream size                              : 3.34 GiB (76%)
Title                                    : potroks
Writing library                          : x264 core 146 r2538 121396c
Encoding settings                        : cabac=1 / ref=9 / deblock=1:-3:-3 / analyse=0x3:0x113 / me=umh / subme=11 / psy=1 / psy_rd=0.98:0.03 / mixed_ref=1 / me_range=56 / chroma_me=1 / trellis=2 / 8x8dct=1 / cqm=0 / deadzone=21,11 / fast_pskip=0 / chroma_qp_offset=-3 / threads=9 / lookahead_threads=2 / sliced_threads=0 / nr=0 / decimate=0 / interlaced=0 / bluray_compat=0 / constrained_intra=0 / bframes=11 / b_pyramid=2 / b_adapt=2 / b_bias=0 / direct=3 / weightb=1 / open_gop=0 / weightp=2 / keyint=250 / keyint_min=23 / scenecut=40 / intra_refresh=0 / rc_lookahead=60 / rc=2pass / mbtree=0 / bitrate=4661 / ratetol=1.0 / qcomp=0.70 / qpmin=0 / qpmax=69 / qpstep=4 / cplxblur=20.0 / qblur=0.5 / vbv_maxrate=14000 / vbv_bufsize=14000 / nal_hrd=none / filler=0 / ip_ratio=1.40 / pb_ratio=1.30 / aq=1:0.80
Language                                 : English
Default                                  : Yes
Forced                                   : No

Audio #1
ID                                       : 2
Format                                   : AC-3
Format/Info                              : Audio Coding 3
Mode extension                           : CM (complete main)
Codec ID                                 : A_AC3
Duration                                 : 1h 45mn
Bit rate mode                            : Constant
Bit rate                                 : 640 Kbps
Channel(s)                               : 6 channels
Channel positions                        : Front: L C R, Side: L R, LFE
Sampling rate                            : 48.0 KHz
Bit depth                                : 16 bits
Compression mode                         : Lossy
Stream size                              : 482 MiB (11%)
Title                                    : Dub | DD 5.1 @ 640 kbps - Blu-Ray EUR
Language                                 : Russian
Default                                  : Yes
Forced                                   : No

Audio #2
ID                                       : 3
Format                                   : AC-3
Format/Info                              : Audio Coding 3
Mode extension                           : CM (complete main)
Codec ID                                 : A_AC3
Duration                                 : 1h 45mn
Bit rate mode                            : Constant
Bit rate                                 : 640 Kbps
Channel(s)                               : 6 channels
Channel positions                        : Front: L C R, Side: L R, LFE
Sampling rate                            : 48.0 KHz
Bit depth                                : 16 bits
Compression mode                         : Lossy
Stream size                              : 482 MiB (11%)
Title                                    : Original | DD 5.1 @ 640 kbps
Language                                 : English
Default                                  : No
Forced                                   : No

Text #1
ID                                       : 4
Format                                   : UTF-8
Codec ID                                 : S_TEXT/UTF8
Codec ID/Info                            : UTF-8 Plain Text
Title                                    : Forced
Language                                 : Russian
Default                                  : Yes
Forced                                   : No

Text #2
ID                                       : 5
Format                                   : UTF-8
Codec ID                                 : S_TEXT/UTF8
Codec ID/Info                            : UTF-8 Plain Text
Language                                 : Russian
Default                                  : No
Forced                                   : No

Text #3
ID                                       : 6
Format                                   : UTF-8
Codec ID                                 : S_TEXT/UTF8
Codec ID/Info                            : UTF-8 Plain Text
Language                                 : English
Default                                  : No
Forced                                   : No

Menu
00:00:00.000                             : en:(01)00:00:00:000
00:06:35.435                             : en:(02)00:06:35:435
00:13:58.586                             : en:(03)00:13:58:586
00:17:56.115                             : en:(04)00:17:56:115
00:22:05.574                             : en:(05)00:22:05:574
00:26:36.760                             : en:(06)00:26:36:760
00:31:17.875                             : en:(07)00:31:17:875
00:34:37.699                             : en:(08)00:34:37:699
00:38:39.400                             : en:(09)00:38:39:400
00:42:54.697                             : en:(10)00:42:54:697
00:52:52.751                             : en:(11)00:52:52:751
01:03:13.956                             : en:(12)01:03:13:956
01:10:54.667                             : en:(13)01:10:54:667
01:16:46.350                             : en:(14)01:16:46:350
01:20:41.752                             : en:(15)01:20:41:752
01:25:36.088                             : en:(16)01:25:36:088
01:28:27.176                             : en:(17)01:28:27:176
01:39:11.528                             : en:(18)01:39:11:528
01:45:21.814                             : en:(19)01:45:21:814

pb.wtf



Скачать Золушка через торрент http://i72.fastpic.ru/big/2015/0813/dd/d30146fd1614316e380f235c9f09cfdd.png Скачать фильм Золушка через торрент бесплантно в хорошем качестве Описание: Отец молодой девушки по имени Элла, овдовев, женится во второй раз, и вскоре Элла оказывается один на один с жадными и ... 9.5 10 11
Торрент: Зарегистрирован [2015-08-13 10:33] · скачан: 414 раз
Статус: √ проверено
Размер: 4.37 GB
Как cкачать? Как скачать Золушка через торрент | qTorrent

% Раздел Тема Автор DL S | L
Фильмы 2019-2020 [DVDrip, WEB-DLRip, HDrip] (DUB, MVO) [ 1.89 GB ] Диджей Золушка / Cinderela Pop [2019 Мело WEB-DLRip-AVC] [ ] от MediaBit Lithuania Скачать
2 | 0
Ultra HD (UHD: 2K, 4K, 8K) — видео сверхвысокой чёткости [ 15.32 GB ] Золушка / Cinderella [2015 UHD BDRip 2160p] DUB [] sheker187 Скачать
1 | 0
Ultra HD (UHD: 2K, 4K, 8K) — видео сверхвысокой чёткости [ 51.72 GB ] Золушка / Cinderella [2015 UHD BDRemux 2160p] DUB [] sheker187 Скачать
1 | 0
Фильмы 2015 [DVDrip, WEB-DLRip, HDrip] [ 1.46 GB ] Золушка [2015 BDRip] DUB Twi7ter Скачать
1 | 0
Фильмы 2015 [DVDrip, WEB-DLRip, HDrip] [ 2.18 GB ] Золушка [2015 BDRip-AVC] DUB potroks Скачать
1 | 0
Иностранные мультфильмы [ 700 MB ] Золушка: Полный вперед! / Cendrillon au Far West [2012 мультфильм HDRip DUB лицензия] makarevich Скачать
1 | 0

28-11-2019 20:33  

Отключить всю рекламу на сайте

15-08-2015 07:48 Золушка Скачать торрент  

Негр- гусар отбил все желание посмотреть этот фильм.pb.wtf



    Дорогой пользователь! Огромная просьба, поблагодарите релизера, оцените раздачу и оставьте свои комментарий, если Вы скачали Золушка через торрент бесплатно! Внесите свою лепту в развитие PiratBit!
    Комментировать посты могут только пользователи прошедшие не сложную регистрацию
    Показать сообщения:    

    Золушка через торрент
    Скачать бесплатно Золушка
    Золушка скачать торрент
    Золушка смотреть онлайн
    Cкачать фильм Золушка бесплатно
    Золушка скачать торрент в хорошем качестве
    Золушка смотреть онлайн бесплатно в хорошем качестве


    Вы не можете начинать темы
    Вы не можете отвечать на сообщения
    Вы не можете редактировать свои сообщения
    Вы не можете удалять свои сообщения
    Вы не можете голосовать в опросах
    Вы не можете прикреплять файлы к сообщениям
    Вы можете скачивать файлы