Ссылка на приватное зеркало нашего сайта всего за 1$. Внимание количество ограничено!!!

2 сезон

iTunes

1 сезон

1

2 сезон

2 сезон

iTunes

1 сезон

RePack

30

Ultimate

ВАЖНО

ИГРА 18+

pack

RePack

MK11
pack

Забери бонус

RePack

jed

!!Акция!!

Alien_Rage

RePack

fifa19

RePack

Assassins Creed: Odyssey

RePack

NEED FOR SPEED™ PAYBACK

4 сезон

9 сезон

Бесстыжие 9 сезон

Все сериалы

все сериалы на PB.wtf

RePack

FAR CRY 5
  

Дикая Южная Африка: Сафари / Wildlife South Africa: Safari (Норберт Вандер) [2012, документальный, BDRip 720p by msltel] VO (профессиональный) pb.wtf

Дикая Южная Африка: Сафари через торрент pb.wtf

Размер: 1.71 GB | Добавлен: 5 лет 3 мес. назад | Торрент скачан:26 раз
Скачать  

13-08-2015 14:56 Дикая Южная Африка: Сафари Скачать торрент  

Название: Дикая Южная Африка: Сафари
Оригинальное название: Wildlife South Africa: Safari
Год выпуска: 2012
Страна: Германия
Жанр: документальный
Продолжительность: 00:49:27
Перевод: профессиональный одноголосый

Режиссёр: Норберт Вандер

Описание: Очень популярным в мире видом туризма является поездка в Африку на сафари. Он позволяет сохранить обитателей дикой природы и заповедников в их родной среде обитания. В этом фильме мы увидим не только львов, леопардов, носорогов, слонов и буйволов, но также бегемотов, антилоп и редких диких собак. А также по общаемся с работником заповедника. В фильме показана жизнь животных Южной Африки.



Качество: BDRip 720p
Формат: MKV
Видео кодек: H.264
Аудио кодек: AC3
Видео: MPEG-4 AVC, 3956 Кбит/с, 1280x720, 23,976 кадра/с
Аудио 1: русский, AC3, 448 kbps, 6 ch, 48 kHz [профессиональный одноголосый]
Аудио 2: английский, AC3, 448 kbps, 6 ch, 48 kHz [оригинал]
Общее
Уникальный идентификатор : 215253526677590426256105932774288232972 (0xA1F0523E82A8BB9B8CA40B93F5C5920C)
Полное имя : D:VideoДикая Южная Африка.2012.BDRip.720p.mkv
Формат : Matroska
Версия формата : Version 4 / Version 2
Размер файла : 1,71 Гбайт
Продолжительность : 49 м.
Общий поток : 4950 Кбит/сек
Название фильма : BDRip -- STarankov
Дата кодирования : UTC 2015-08-11 08:50:15
Программа кодирования : mkvmerge v8.2.0 ('World of Adventure') 64bit
Библиотека кодирования : libebml v1.3.1 + libmatroska v1.4.2
DURATION : 00:49:27.360000000
NUMBER_OF_FRAMES : 92730
NUMBER_OF_BYTES : 166172160
_STATISTICS_WRITING_APP : mkvmerge v8.2.0 ('World of Adventure') 64bit
_STATISTICS_WRITING_DATE_UTC : 2015-08-11 08:50:15
_STATISTICS_TAGS : BPS DURATION NUMBER_OF_FRAMES NUMBER_OF_BYTES

Видео
Идентификатор : 1
Формат : AVC
Формат/Информация : Advanced Video Codec
Профиль формата : High@L4.1
Параметр CABAC формата : Да
Параметр ReFrames формата : 9 кадров
Идентификатор кодека : V_MPEG4/ISO/AVC
Продолжительность : 49 м.
Битрейт : 3956 Кбит/сек
Ширина : 1280 пикселей
Высота : 720 пикселей
Соотношение сторон : 16:9
Режим частоты кадров : Постоянный
Частота кадров : 23,976 кадра/сек
Цветовое пространство : YUV
Субдискретизация насыщенности : 4:2:0
Битовая глубина : 8 бит
Тип развёртки : Прогрессивная
Бит/(Пиксели*Кадры) : 0.179
Размер потока : 1,37 Гбайт (80%)
Библиотека кодирования : x264 core 146 r2538 121396c
Настройки программы : cabac=1 / ref=9 / deblock=1:-1:-1 / analyse=0x3:0x113 / me=umh / subme=10 / psy=1 / psy_rd=1.00:0.15 / mixed_ref=1 / me_range=32 / chroma_me=1 / trellis=2 / 8x8dct=1 / cqm=0 / deadzone=21,11 / fast_pskip=1 / chroma_qp_offset=-3 / threads=6 / lookahead_threads=1 / sliced_threads=0 / nr=0 / decimate=1 / interlaced=0 / bluray_compat=0 / constrained_intra=0 / bframes=10 / b_pyramid=2 / b_adapt=2 / b_bias=0 / direct=1 / weightb=1 / open_gop=0 / weightp=2 / keyint=230 / keyint_min=23 / scenecut=40 / intra_refresh=0 / rc_lookahead=40 / rc=crf / mbtree=0 / crf=20.0 / qcomp=0.60 / qpmin=0 / qpmax=69 / qpstep=4 / vbv_maxrate=40000 / vbv_bufsize=50000 / crf_max=0.0 / nal_hrd=none / filler=0 / ip_ratio=1.40 / pb_ratio=1.30 / aq=1:1.00
Язык : English
Default : Да
Forced : Нет
DURATION : 00:49:27.340000000
NUMBER_OF_FRAMES : 71145
NUMBER_OF_BYTES : 1503141893
_STATISTICS_WRITING_APP : mkvmerge v8.2.0 ('World of Adventure') 64bit
_STATISTICS_WRITING_DATE_UTC : 2015-08-11 08:50:15
_STATISTICS_TAGS : BPS DURATION NUMBER_OF_FRAMES NUMBER_OF_BYTES

Аудио #1
Идентификатор : 2
Формат : AC-3
Формат/Информация : Audio Coding 3
Расширение режима : CM (complete main)
Параметр Endianness формата : Big
Идентификатор кодека : A_AC3
Продолжительность : 49 м.
Вид битрейта : Постоянный
Битрейт : 448 Кбит/сек
Каналы : 6 каналов
Расположение каналов : Front: L C R, Side: L R, LFE
Частота : 48,0 КГц
Метод сжатия : С потерями
Размер потока : 158 Мбайт (9%)
Заголовок : профессиональный одноголосый
Язык : Russian
Default : Да
Forced : Нет

Аудио #2
Идентификатор : 3
Формат : AC-3
Формат/Информация : Audio Coding 3
Расширение режима : CM (complete main)
Параметр Endianness формата : Big
Идентификатор кодека : A_AC3
Продолжительность : 49 м.
Вид битрейта : Постоянный
Битрейт : 448 Кбит/сек
Каналы : 6 каналов
Расположение каналов : Front: L C R, Side: L R, LFE
Частота : 48,0 КГц
Метод сжатия : С потерями
Размер потока : 158 Мбайт (9%)
Заголовок : Original
Язык : English
Default : Нет
Forced : Нет
pb.wtf



Скачать Дикая Южная Африка: Сафари через торрент http://i71.fastpic.ru/big/2015/0813/d7/ec9eb006d56a6064b701e68c8b92b4d7.jpg Скачать фильм Дикая Южная Африка: Сафари через торрент бесплантно в хорошем качестве Описание: Очень популярным в мире видом туризма является поездка в Африку на сафари. Он позволяет сохранить обитателей дикой природы и ... 10 10 5
Торрент: Зарегистрирован [2015-08-13 14:56] · скачан: 26 раз
Статус: √ проверено
Размер: 1.71 GB
Как cкачать? Как скачать Дикая Южная Африка: Сафари через торрент | qTorrent

% Раздел Тема Автор DL S | L
National Geographic [ 4.27 GB ] Дикая Южная Африка: Сафари / Wildlife South Africa: Safari [2012 документальный BDRip 1080p by msltel] VO msltel Скачать
1 | 0
National Geographic [ 1.21 GB ] Дикая Южная Африка: Сафари / Wildlife South Africa: Safari [2012 документальный BDRip AVC by msltel] VO msltel Скачать
1 | 0

28-11-2019 20:33  

Отключить всю рекламу на сайте

    Дорогой пользователь! Огромная просьба, поблагодарите релизера, оцените раздачу и оставьте свои комментарий, если Вы скачали Дикая Южная Африка: Сафари через торрент бесплатно! Внесите свою лепту в развитие PiratBit!
    Комментировать посты могут только пользователи прошедшие не сложную регистрацию
    Показать сообщения:    

    Дикая Южная Африка: Сафари через торрент
    Скачать бесплатно Дикая Южная Африка: Сафари
    Дикая Южная Африка: Сафари скачать торрент
    Дикая Южная Африка: Сафари смотреть онлайн
    Cкачать фильм Дикая Южная Африка: Сафари бесплатно
    Дикая Южная Африка: Сафари скачать торрент в хорошем качестве
    Дикая Южная Африка: Сафари смотреть онлайн бесплатно в хорошем качестве


    Вы не можете начинать темы
    Вы не можете отвечать на сообщения
    Вы не можете редактировать свои сообщения
    Вы не можете удалять свои сообщения
    Вы не можете голосовать в опросах
    Вы не можете прикреплять файлы к сообщениям
    Вы можете скачивать файлы