Ссылка на приватное зеркало нашего сайта всего за 1$. Внимание количество ограничено!!!

2 сезон

iTunes

1 сезон

1

2 сезон

2 сезон

iTunes

1 сезон

RePack

30

Новинка

ВАЖНО

ИГРА 18+

pack

RePack

MK11
pack

Забери бонус

RePack

jed

!!Акция!!

Alien_Rage

RePack

fifa19

RePack

Assassins Creed: Odyssey

RePack

NEED FOR SPEED™ PAYBACK

4 сезон

9 сезон

Бесстыжие 9 сезон

Все сериалы

все сериалы на PB.wtf

RePack

FAR CRY 5
  

Слепая зона / Слепое пятно / Blindspot / Сезон: 1 / Серии 1-21 из 23 (Марк Пеллингтон / Mark Pellington) [2015, США, драма, детектив, WEB-DLRip] MVO [NewStudio] pb.wtf

Слепая зона через торрент pb.wtf

Размер: 11.07 GB | Добавлен: 4 года 6 мес. назад | Торрент скачан:66 раз
Скачать  

14-08-2015 01:26 Слепая зона Скачать торрент  

Слепая зона / Слепое пятно / Blindspot


  • Год выпуска: 2015
  • Страна: США
  • Жанр: драма, детектив
  • Продолжительность: 00:41:42
  • Перевод: Профессиональный многоголосый закадровый [NewStudio]

  • Режиссер: Марк Пеллингтон / Mark Pellington
  • В ролях:

    Джейми Александер (Jane Doe), Салливан Степлтон (Kurt Weller), Одри Эспарза (Tasha Zapata), Роб Браун (Edgar Reed), Марианн Жан-Батист (Bethany Mayfair), Аквели Роач (Dr. Borden), Эшли Джонсон (Patterson), Марко Кака (Doctor Rob), Орелин Гайя (FBI Agent), Карл Ли (Wai), СиДжей Парсон (FBI Agent), Ноэль Рамос (Kyle LaColla - FBI Agent)

  • Описание:
    В центре сюжета находится потерявшая свою память девушка, которая оказывается в центре расследования после того, как смогла выбраться из брезентового мешка в самом центре Нью-Йорк Сити на Таймс Сквер. Не имея ни малейшего представления о том, кто она такая, девушка не знает, что обозначают многочисленные загадочные татуировки, которыми покрыто все ее тело. Когда выясняется, что татуировки являются чем-то вроде дорожной карты, к делу подключается ФБР.
  • Рейтинг:



  • Качество: WEB-DLRip
  • Формат: :AVI
  • Видео кодек: XviD
  • Аудио кодек: MP3
  • Видео: 1538 Кбит/сек, 720*400 (16:9), в 23,976 кадра/сек, MPEG-4 Visual (XviD)
  • Аудио №1: Русский 128 Кбит/сек, 48,0 КГц, 2 канала, MPEG Audio (MP3)
  • Аудио №2: Английский 128 Кбит/сек, 48,0 КГц, 2 канала, MPEG Audio (MP3)
  • Релиз от: GEKADOL

    Код:

    Внимание! Раздача ведётся путём добавления новых серий; при каждом добавлении создаётся новый торрент. Чтобы начать докачку новой серии, пользователям необходимо сделать следующее:
    (1) остановить скачивание,
    (2) удалить старый торрент у себя из клиента (старые серии удалять не надо),
    (3) скачать новый торрент и запустить его у себя в клиенте вместо старого, при этом указать клиенту путь в старую папку куда и должно происходить скачивание новых серий.
    Ваш клиент при этом должен произвести хеширование (проверку) старой папки (если не производит сам - помогите ему сделать это), и будет докачивать только те серии которых у вас ещё нет. Старые серии при этом не удаляются, а продолжают раздаваться!
    Eсли вы уже удалили старые серии, то предотвратить повторную закачку старых серий можно, отжав галочку в соответствующих местах при запуске нового торрента. По возможности, желательно не удалять старые серии как можно дольше чтобы релизёр не столько продолжал раздавать старые серии, а смог сконцентрироваться на новых.


    Код:

    Общее
    Полное имя                               : H:\Blindspot (S01).NewStudio\Blindspot.s01e02.WEBDLRip.NewStudio.avi
    Формат                                   : AVI
    Формат/Информация                        : Audio Video Interleave
    Размер файла                             : 541 Мбайт
    Продолжительность                        : 41 м.
    Общий поток                              : 1808 Кбит/сек
    Программа кодирования                    : VirtualDubMod 1.5.10.3 | www.virtualdub-fr.org || (build 2550/release)
    Библиотека кодирования                   : VirtualDubMod build 2550/release

    Видео
    Идентификатор                            : 0
    Формат                                   : MPEG-4 Visual
    Профиль формата                          : Advanced Simple@L5
    Параметр BVOP формата                    : 2
    Параметр QPel формата                    : Нет
    Параметр GMC формата                     : Без точки перехода
    Параметр матрицы формата                 : Default (MPEG)
    Идентификатор кодека                     : XVID
    Идентификатор кодека/Подсказка           : XviD
    Продолжительность                        : 41 м.
    Битрейт                                  : 1538 Кбит/сек
    Ширина                                   : 720 пикселей
    Высота                                   : 400 пикселей
    Соотношение сторон                       : 16:9
    Частота кадров                           : 23,976 кадра/сек
    Цветовое пространство                    : YUV
    Субдискретизация насыщенности            : 4:2:0
    Битовая глубина                          : 8 бит
    Тип развёртки                            : Прогрессивная
    Метод сжатия                             : С потерями
    Бит/(Пиксели*Кадры)                      : 0.223
    Размер потока                            : 460 Мбайт (85%)
    Библиотека кодирования                   : XviD 73

    Аудио #1
    Идентификатор                            : 1
    Формат                                   : MPEG Audio
    Версия формата                           : Version 1
    Профиль формата                          : Layer 3
    Идентификатор кодека                     : 55
    Идентификатор кодека/Подсказка           : MP3
    Продолжительность                        : 41 м.
    Вид битрейта                             : Постоянный
    Битрейт                                  : 128 Кбит/сек
    Каналы                                   : 2 канала
    Частота                                  : 48,0 КГц
    Метод сжатия                             : С потерями
    Размер потока                            : 38,3 Мбайт (7%)
    Выравнивание                             : Соединение по промежуткам
    Продолжительность промежутка             : 42  мс. (1,00 видеокадр)
    Время предзагрузки промежутка            : 504  мс.

    Аудио #2
    Идентификатор                            : 2
    Формат                                   : MPEG Audio
    Версия формата                           : Version 1
    Профиль формата                          : Layer 3
    Режим                                    : Joint stereo
    Расширение режима                        : MS Stereo
    Идентификатор кодека                     : 55
    Идентификатор кодека/Подсказка           : MP3
    Продолжительность                        : 41 м.
    Вид битрейта                             : Постоянный
    Битрейт                                  : 128 Кбит/сек
    Каналы                                   : 2 канала
    Частота                                  : 48,0 КГц
    Метод сжатия                             : С потерями
    Размер потока                            : 38,3 Мбайт (7%)
    Выравнивание                             : Соединение по промежуткам
    Продолжительность промежутка             : 42  мс. (1,00 видеокадр)
    Время предзагрузки промежутка            : 504  мс.
    Библиотека кодирования                   : LAME3.99.5




    Скриншоты:
    скриншот   скриншот   скриншот   скриншот   скриншот   скриншот   скриншот  
    скриншот  

    Раздача ведётся путём добавления новых серий. Добавлена 21 серия (14.05.2016).Просьба перекачать торрент файл.

    pb.wtf



  • Скачать Слепая зона через торрент http://i71.fastpic.ru/big/2015/0814/18/9318d1e279837bb0b072b474c553ce18.jpeg Скачать фильм Слепая зона через торрент бесплантно в хорошем качестве Описание: В центре сюжета находится потерявшая свою память девушка, которая оказывается в центре расследования после того, как смогла ... 9.2 10 36
    Info! Золотая раздача, скачанное не засчитывается.
    Торрент: Зарегистрирован [2016-05-14 02:17] · скачан: 66 раз
    Статус: √ проверено
    Размер: 11.07 GB
    Как cкачать? Как скачать Слепая зона через торрент | qTorrent

    % Раздел Тема Автор DL S | L
    Зарубежные сериалы [ 29.64 GB ] Слепая зона / Слепое пятно / Blindspot / Сезон: 1 / Серии 1-21 из 23 [2015 WEB-DL 720p] MVO [NewStudio] GEKADOL Скачать
    1 | 0


    Последний раз редактировалось: GEKADOL (2016-05-14 02:17), всего редактировалось 13 раз(а)

    28-11-2019 20:33  

    Отключить всю рекламу на сайте

    26-11-2015 04:13 Слепая зона Скачать торрент  

    беремpb.wtf



    27-11-2015 15:22 Слепая зона Скачать торрент  

    серия интересная . И что самое интересное, мне кажется ФСБ активировала спящих агентов не просто для того, чтобы те убрали их целей. Мне почему то кажется что эта программа "Дневной свет" и ее разоблачение угрожала не только ЦРУ, но и ФСБ с СВРpb.wtf



    11-12-2015 17:20 Слепая зона Скачать торрент  

    Всем доброго времени суток. Новые серии будут или они то же, как и ходячие, ушли на Новогодние праздники?pb.wtf



    04-04-2016 15:42 Слепая зона Скачать торрент  

    Отличный сериал!!! Сколько всего серий ожидается?pb.wtf



    26-04-2016 00:32 Слепая зона Скачать торрент  

    Tru_SeGa писал(а):

    Отличный сериал!!! Сколько всего серий ожидается?

    23 pb.wtf



      Дорогой пользователь! Огромная просьба, поблагодарите релизера, оцените раздачу и оставьте свои комментарий, если Вы скачали Слепая зона через торрент бесплатно! Внесите свою лепту в развитие PiratBit!
      Комментировать посты могут только пользователи прошедшие не сложную регистрацию
      Показать сообщения:    

      Слепая зона через торрент
      Скачать бесплатно Слепая зона
      Слепая зона скачать торрент
      Слепая зона смотреть онлайн
      Cкачать фильм Слепая зона бесплатно
      Слепая зона скачать торрент в хорошем качестве
      Слепая зона смотреть онлайн бесплатно в хорошем качестве


      Вы не можете начинать темы
      Вы не можете отвечать на сообщения
      Вы не можете редактировать свои сообщения
      Вы не можете удалять свои сообщения
      Вы не можете голосовать в опросах
      Вы не можете прикреплять файлы к сообщениям
      Вы можете скачивать файлы