новый адрес
Ссылка на приватное зеркало всего за 1$. Внимание количество ограничено!!!

iTunes

1+1

iTunes

мы

WEB-DL

1

iTunes

Чернобыль

iTunes

Ральф против интернета

Лицензия

ПШазам

Лицензия

Оно 2

Лицензия

30
pack

Вам бонус

ВАЖНО

!!Акция!!

Alien_RageХит недели

RePack

Resident Evil 21

ИГРА 18+

pack

RePack

jed

!!Акция!!

Alien_Rage

RePack

fifa19

RePack

Assassins Creed: Odyssey

RePack

NEED FOR SPEED™ PAYBACK

3 сезон

9 сезон

Бесстыжие 9 сезон

Все сериалы

все сериалы на PB.wtf

RePack

FAR CRY 5
Ребята, катастрофически не хватает 1900р. для оплаты серверов за Октябрь (всвязи с блокировками трафик упал в 3 раза), 1-2р., выручайте.
  

Сталинградская битва (Владимир Петров) [1949, СССР, драма, военный, DVDRip от AVP Studio] pb.wtf

Сталинградская битва через торрент pb.wtf

Размер: 2.18 GB | Добавлен: 4 года 3 мес. назад | Торрент скачан:30 раз
Скачать  

14-08-2015 08:32 Сталинградская битва Скачать торрент  

Сталинградская битва
Страна: СССР
Производство: Мосфильм

Жанр: драма, военный
Год выпуска: 1949
Продолжительность: 02:58:55 (01:34:02 + 01:24:53)

Перевод: Не требуется
Cубтитры: нет
Оригинальная аудиодорожка: русский

Режиссер: Владимир Петров

В ролях:Алексей Дикий, Максим Штраух, Михаил Кварелашвили, Юрий Толубеев, Михаил Державин (ст.), Александр Крюков, Гарри Мушегян, Николай Рыжов, Владимир Соловьёв, Виктор Хохряков, Николай Дорохин, Михаил Воробьёв, Семён Хмельницкий, Гавриил Белов, Юрий Шумский, Василий Меркурьев, Борис Ливанов, Николай Колесников (III), Николай Симонов, Василий Орлов, Сергей Бржевский, Николай Плотников, Борис Добронравов, Борис Смирнов, Леонид Князев, Владимир Головин (II), Алексей Краснопольский, Михаил Названов, Николай Крючков, Александр Антонов, Николай Черкасов, Виктор Станицын, Константин Михайлов, Николай Раевский (II), Павел Массальский, Михаил Астангов, Николай Комиссаров, Борис Свобода, Владимир Гайдаров, Владимир Всеволодов, Евгений Калужский, Николай Николаевский, Николай Рыбников (II), Владимир Чернявский, Михаил Гаркави, Петр Аржанов, Ростислав Плятт...
Полный список актёров

Описание: В основе сюжета художественно-документальной ленты - героическая оборона Сталинграда (1942) во время Великой Отечественной войны.
Лето 1942 года. Фашисты стремятся прорвать фронт советских войск на юго-западном направлении и захватить Сталинград. Город охвачен пламенем, под бомбами гибнут женщины, старики, дети. Но защитникам Сталинграда удается сдержать наступление гитлеровских полчищ. Верховное главнокомандование Советской армии готовит контрудар. 19 ноября 1942 года Сталин отдает приказ о наступлении, и в результате стремительных действий советских войск в стальном кольце оказывается 22 дивизии противника. Немецко-фашистское командование выбрасывает белый флаг.
Фильм удостоен Сталинской премии I степени (1950).

Источник: 2хDVD9 (немецкое издание)
Качество видео: DVDRip
Формат видео: AVI
Видео кодек: XviD
Аудио кодек: AC3
Видео: 688x512 (4:3), 25 fps, XviD ~ 1541 kbps avg, 0.175 bit/pixel
Аудио: 48 kHz, Dolby Digital AC3 2.0, 192 kbps

Раздача от:
Общее
Полное имя : Stalingradskaya.bitva.1949.DVDRip_[New-team]_by_AVP_Studio\Серия 1.avi
Формат : AVI
Формат/Информация : Audio Video Interleave
Размер файла : 1,14 Гбайт
Продолжительность : 1 ч. 34 м.
Общий поток : 1742 Кбит/сек
Программа кодирования : VirtualDubMod 1.5.10.3 | www.virtualdub-fr.org || (build 2550/release)
Библиотека кодирования : VirtualDubMod build 2550/release

Видео
Идентификатор : 0
Формат : MPEG-4 Visual
Профиль формата : Advanced Simple@L5
Параметр BVOP формата : 1
Параметр QPel формата : Нет
Параметр GMC формата : Без точки перехода
Параметр матрицы формата : Выборочная
Идентификатор кодека : XVID
Идентификатор кодека/Подсказка : XviD
Продолжительность : 1 ч. 34 м.
Битрейт : 1541 Кбит/сек
Ширина : 688 пикселей
Высота : 512 пикселей
Соотношение сторон : 4:3
Частота кадров : 25,000 кадров/сек
Цветовое пространство : YUV
Субдискретизация насыщенности : 4:2:0
Битовая глубина : 8 бит
Тип развёртки : Прогрессивная
Метод сжатия : С потерями
Бит/(Пиксели*Кадры) : 0.175
Размер потока : 1,01 Гбайт (88%)
Библиотека кодирования : XviD 73

Аудио
Идентификатор : 1
Формат : AC-3
Формат/Информация : Audio Coding 3
Расширение режима : CM (complete main)
Параметр Endianness формата : Big
Идентификатор кодека : 2000
Продолжительность : 1 ч. 33 м.
Вид битрейта : Постоянный
Битрейт : 192 Кбит/сек
Каналы : 2 канала
Расположение каналов : Front: L R
Частота : 48,0 КГц
Метод сжатия : С потерями
Размер потока : 128 Мбайт (11%)
Выравнивание : Разделение по промежуткам
Продолжительность промежутка : 40 мс. (1,01 видеокадр)
Время предзагрузки промежутка : 500 мс
pb.wtf



Скачать Сталинградская битва через торрент http://s020.radikal.ru/i701/1508/96/eb47c674f759.png Скачать фильм Сталинградская битва через торрент бесплантно в хорошем качестве Описание: В основе сюжета художественно-документальной ленты - героическая оборона Сталинграда (1942) во время Великой Отечественной ... 10 10 3
Торрент: Зарегистрирован [2015-08-14 08:32] · скачан: 30 раз
Статус: √ проверено
Размер: 2.18 GB
Как cкачать? Как скачать Сталинградская битва через торрент | qTorrent

% Раздел Тема Автор DL S | L
Кино СССР [ 2.9 GB ] Сталинградская битва [1949 СССР военный DVDRip-AVC от AVP Studio] Original + DUB AVP Studio Скачать
1 | 0
Кино СССР [ 1.46 GB ] Сталинградская битва [1949 СССР военный DVDRip от AVP Studio] AVP Studio Скачать
1 | 0

28-11-2019 20:33  

Отключить всю рекламу на сайте

    Дорогой пользователь! Огромная просьба, поблагодарите релизера, оцените раздачу и оставьте свои комментарий, если Вы скачали Сталинградская битва через торрент бесплатно! Внесите свою лепту в развитие PiratBit!
    Комментировать посты могут только пользователи прошедшие не сложную регистрацию
    Показать сообщения:    

    Сталинградская битва через торрент
    Скачать бесплатно Сталинградская битва
    Сталинградская битва скачать торрент
    Сталинградская битва смотреть онлайн
    Cкачать фильм Сталинградская битва бесплатно
    Сталинградская битва скачать торрент в хорошем качестве
    Сталинградская битва смотреть онлайн бесплатно в хорошем качестве


    Вы не можете начинать темы
    Вы не можете отвечать на сообщения
    Вы не можете редактировать свои сообщения
    Вы не можете удалять свои сообщения
    Вы не можете голосовать в опросах
    Вы не можете прикреплять файлы к сообщениям
    Вы можете скачивать файлы