новый адрес пиратбит piratbit
Мега распродажа FORZA HORIZON 4 ULTIMATE+ВСЕ DLC+ОНЛАЙН всего за 499р. 349 руб. (супер цена). Внимание количество ограничено!!!

iTunes

1+1

iTunes

мы

iTunes

1

iTunes

Чернобыль

iTunes

Ральф против интернета

Лицензия

ПШазам

Лицензия

Игра престолов

Лицензия

30
pack

ВАЖНО

!!Акция!!

Alien_RageХит недели

RePack

Resident Evil 21

ИГРА 18+

pack

RePack

Metro:Exodus

!!Акция!!

Alien_Rage

RePack

fifa19

RePack

Assassins Creed: Odyssey

RePack

NEED FOR SPEED™ PAYBACK

3 сезон

9 сезон

Бесстыжие 9 сезон

Все сериалы

все сериалы на PB.wtf

RePack

FAR CRY 5
Ребята, катастрофически не хватает 1900р. для оплаты серверов за Октябрь (всвязи с блокировками трафик упал в 3 раза), 1-2р., выручайте.
  

Сталинградская битва (Владимир Петров) [1949, СССР, драма, военный, DVDRip от AVP Studio] pb.wtf

Сталинградская битва через торрент pb.wtf

Размер: 1.46 GB | Добавлен: 4 года 2 мес. назад | Торрент скачан:45 раз
Скачать  

14-08-2015 08:34 Сталинградская битва Скачать торрент  

Сталинградская битва
Страна: СССР
Производство: Мосфильм

Жанр: драма, военный
Год выпуска: 1949
Продолжительность: 02:58:55 (01:34:02 + 01:24:53)

Перевод: Не требуется
Cубтитры: нет
Оригинальная аудиодорожка: русский

Режиссер: Владимир Петров

В ролях:Алексей Дикий, Максим Штраух, Михаил Кварелашвили, Юрий Толубеев, Михаил Державин (ст.), Александр Крюков, Гарри Мушегян, Николай Рыжов, Владимир Соловьёв, Виктор Хохряков, Николай Дорохин, Михаил Воробьёв, Семён Хмельницкий, Гавриил Белов, Юрий Шумский, Василий Меркурьев, Борис Ливанов, Николай Колесников (III), Николай Симонов, Василий Орлов, Сергей Бржевский, Николай Плотников, Борис Добронравов, Борис Смирнов, Леонид Князев, Владимир Головин (II), Алексей Краснопольский, Михаил Названов, Николай Крючков, Александр Антонов, Николай Черкасов, Виктор Станицын, Константин Михайлов, Николай Раевский (II), Павел Массальский, Михаил Астангов, Николай Комиссаров, Борис Свобода, Владимир Гайдаров, Владимир Всеволодов, Евгений Калужский, Николай Николаевский, Николай Рыбников (II), Владимир Чернявский, Михаил Гаркави, Петр Аржанов, Ростислав Плятт...
Полный список актёров

Описание: В основе сюжета художественно-документальной ленты - героическая оборона Сталинграда (1942) во время Великой Отечественной войны.
Лето 1942 года. Фашисты стремятся прорвать фронт советских войск на юго-западном направлении и захватить Сталинград. Город охвачен пламенем, под бомбами гибнут женщины, старики, дети. Но защитникам Сталинграда удается сдержать наступление гитлеровских полчищ. Верховное главнокомандование Советской армии готовит контрудар. 19 ноября 1942 года Сталин отдает приказ о наступлении, и в результате стремительных действий советских войск в стальном кольце оказывается 22 дивизии противника. Немецко-фашистское командование выбрасывает белый флаг.
Фильм удостоен Сталинской премии I степени (1950).

Источник: 2хDVD9 (немецкое издание)
Качество видео: DVDRip
Формат видео: AVI
Видео кодек: XviD
Аудио кодек: MP3
Видео: 640x480 (4:3), 25 fps, XviD ~ 1029 kbps avg, 0.134 bit/pixel
Аудио: 48 kHz, MP3 2.0, 128 kbps

Раздача от:
Общее
Полное имя : Stalingradskaya.bitva.1949.DVDRip-1.46_[New-team]_by_AVP_Studio\Серия 2.avi
Формат : AVI
Формат/Информация : Audio Video Interleave
Размер файла : 708 Мбайт
Продолжительность : 1 ч. 24 м.
Общий поток : 1166 Кбит/сек
Программа кодирования : VirtualDubMod 1.5.10.3 | www.virtualdub-fr.org || (build 2550/release)
Библиотека кодирования : VirtualDubMod build 2550/release

Видео
Идентификатор : 0
Формат : MPEG-4 Visual
Профиль формата : Advanced Simple@L5
Параметр BVOP формата : 1
Параметр QPel формата : Нет
Параметр GMC формата : Без точки перехода
Параметр матрицы формата : Выборочная
Идентификатор кодека : XVID
Идентификатор кодека/Подсказка : XviD
Продолжительность : 1 ч. 24 м.
Битрейт : 1029 Кбит/сек
Ширина : 640 пикселей
Высота : 480 пикселей
Соотношение сторон : 4:3
Частота кадров : 25,000 кадров/сек
Цветовое пространство : YUV
Субдискретизация насыщенности : 4:2:0
Битовая глубина : 8 бит
Тип развёртки : Прогрессивная
Метод сжатия : С потерями
Бит/(Пиксели*Кадры) : 0.134
Размер потока : 625 Мбайт (88%)
Библиотека кодирования : XviD 73

Аудио
Идентификатор : 1
Формат : MPEG Audio
Версия формата : Version 1
Профиль формата : Layer 3
Идентификатор кодека : 55
Идентификатор кодека/Подсказка : MP3
Продолжительность : 1 ч. 24 м.
Вид битрейта : Постоянный
Битрейт : 128 Кбит/сек
Каналы : 2 канала
Частота : 48,0 КГц
Метод сжатия : С потерями
Размер потока : 77,0 Мбайт (11%)
Выравнивание : Соединение по промежуткам
Продолжительность промежутка : 40 мс. (1,01 видеокадр)
Время предзагрузки промежутка : 504 мс.
Библиотека кодирования : LAME3.99r
Настройки программы : -m s -V 4 -q 2 -lowpass 17 -b 128
pb.wtf



Скачать Сталинградская битва через торрент http://s020.radikal.ru/i701/1508/96/eb47c674f759.png Скачать фильм Сталинградская битва через торрент бесплантно в хорошем качестве Описание: В основе сюжета художественно-документальной ленты - героическая оборона Сталинграда (1942) во время Великой Отечественной ... 10 10 4
Торрент: Зарегистрирован [2015-08-14 08:34] · скачан: 45 раз
Статус: √ проверено
Размер: 1.46 GB
Как cкачать? Как скачать Сталинградская битва через торрент | qTorrent

% Раздел Тема Автор DL S | L
Кино СССР [ 2.9 GB ] Сталинградская битва [1949 СССР военный DVDRip-AVC от AVP Studio] Original + DUB AVP Studio Скачать
1 | 0
Кино СССР [ 2.18 GB ] Сталинградская битва [1949 СССР военный DVDRip от AVP Studio] AVP Studio Скачать
1 | 0


>> Регистрируемся здесь <<






Отзывы и комментарии о схеме читаем и пишем здесь: ---> Отзывы и комментарии о схеме

Новые благодарочки в телеграм довольных пользователей:
скриншот   скриншот   скриншот   скриншот   скриншот
    Дорогой пользователь! Огромная просьба, поблагодарите релизера, оцените раздачу и оставьте свои комментарий, если Вы скачали Сталинградская битва через торрент бесплатно! Внесите свою лепту в развитие PiratBit!
    Комментировать посты могут только пользователи прошедшие не сложную регистрацию
    Показать сообщения:    

    Сталинградская битва через торрент
    Скачать бесплатно Сталинградская битва
    Сталинградская битва скачать торрент
    Сталинградская битва смотреть онлайн
    Cкачать фильм Сталинградская битва бесплатно
    Сталинградская битва скачать торрент в хорошем качестве
    Сталинградская битва смотреть онлайн бесплатно в хорошем качестве


    Вы не можете начинать темы
    Вы не можете отвечать на сообщения
    Вы не можете редактировать свои сообщения
    Вы не можете удалять свои сообщения
    Вы не можете голосовать в опросах
    Вы не можете прикреплять файлы к сообщениям
    Вы можете скачивать файлы