Ссылка на приватное зеркало нашего сайта всего за 1$. Внимание количество ограничено!!!

2 сезон

iTunes

1 сезон

1

2 сезон

2 сезон

iTunes

1 сезон

RePack

30

Новинка

ВАЖНО

ИГРА 18+

pack

RePack

MK11
pack

Забери бонус

RePack

jed

!!Акция!!

Alien_Rage

RePack

fifa19

RePack

Assassins Creed: Odyssey

RePack

NEED FOR SPEED™ PAYBACK

4 сезон

9 сезон

Бесстыжие 9 сезон

Все сериалы

все сериалы на PB.wtf

RePack

FAR CRY 5
  

Люцифер / Lucifer/ Сезон: 1 / Серии 1 из 13 (Лен Уайзман / Len Wiseman) [2015, США, фэнтези, HDTVRip, MVO] [NewStudio] pb.wtf

Люцифер через торрент pb.wtf

Размер: 550 MB | Добавлен: 5 лет 3 мес. назад | Торрент скачан:202 раза
Скачать  

15-08-2015 02:28 Люцифер Скачать торрент  

Люцифер / Lucifer


  • Год выпуска: 2015
  • Страна: США
  • Жанр: фэнтези
  • Продолжительность: 00:45:16 (Серия)
  • Перевод: Профессиональный многоголосый закадровый
  • Режиссер: Лен Уайзман / Len Wiseman
  • В ролях:

    Кевин Алехандро (Dan (2016)), Д.Б. Вудсайд (Amenadiel (2016)), Кристен Биттинг (Bridesmaid), Лесли-Энн Брандт (Mazikeen aka Maze), Jordan Cockeram (Wedding Guest), Мэтт Корбой (Officer Diggs), Том Эллис (Lucifer), Скарлет Эстевез (Trixie), Кайла Юэлл (Amanda Bello), Лорен Джерман (Chloe Dancer), Рэйчел Харрис (Linda), Jennifer Kathreen Larson (Pandora)

  • Описание:
    Заскучавший и несчастный повелитель преисподней, Люцифер Морнингстар оставил свой престол и отправился в современный Лос-Анджелес, где основал ночной клуб «Lux». Очаровательный, харизматичный и дьявольски привлекательный Люцифер наслаждается своим отдыхом - вином, женщинами и музыкой - пока красивая поп-звезда не оказывается убитой на пороге его клуба...
  • Рейтинг:



  • Качество: HDTVRip
  • Формат: :AVI
  • Видео кодек: XviD
  • Аудио кодек: MP3
  • Видео: 720x400 (16:9), 1428 kbps, 23,976 fps, 0,207 bpp
  • Аудио №1: 2.0 / 48 kHz / 128 kbps
  • Аудио №2: 2.0 / 48 kHz / 128 kbps
  • Релиз от: GEKADOL

    Код:

    Внимание! Раздача ведётся путём добавления новых серий; при каждом добавлении создаётся новый торрент. Чтобы начать докачку новой серии, пользователям необходимо сделать следующее:
    (1) остановить скачивание,
    (2) удалить старый торрент у себя из клиента (старые серии удалять не надо),
    (3) скачать новый торрент и запустить его у себя в клиенте вместо старого, при этом указать клиенту путь в старую папку куда и должно происходить скачивание новых серий.
    Ваш клиент при этом должен произвести хеширование (проверку) старой папки (если не производит сам - помогите ему сделать это), и будет докачивать только те серии которых у вас ещё нет. Старые серии при этом не удаляются, а продолжают раздаваться!
    Eсли вы уже удалили старые серии, то предотвратить повторную закачку старых серий можно, отжав галочку в соответствующих местах при запуске нового торрента. По возможности, желательно не удалять старые серии как можно дольше чтобы релизёр не столько продолжал раздавать старые серии, а смог сконцентрироваться на новых.


    Код:

    General
    Complete name                            : F:\Lucifer.s01e01.HDTVRip.NewStudio.TV.avi
    Format                                   : AVI
    Format/Info                              : Audio Video Interleave
    File size                                : 550 MiB
    Duration                                 : 45mn 16s
    Overall bit rate                         : 1 698 Kbps
    Writing application                      : VirtualDubMod 1.5.10.2 (build 2540/release)
    Writing library                          : VirtualDubMod build 2540/release

    Video
    ID                                       : 0
    Format                                   : MPEG-4 Visual
    Format profile                           : Advanced Simple@L5
    Format settings, BVOP                    : 2
    Format settings, QPel                    : No
    Format settings, GMC                     : No warppoints
    Format settings, Matrix                  : Default (MPEG)
    Codec ID                                 : XVID
    Codec ID/Hint                            : XviD
    Duration                                 : 45mn 16s
    Bit rate                                 : 1 428 Kbps
    Width                                    : 720 pixels
    Height                                   : 400 pixels
    Display aspect ratio                     : 16:9
    Frame rate                               : 23.976 fps
    Color space                              : YUV
    Chroma subsampling                       : 4:2:0
    Bit depth                                : 8 bits
    Scan type                                : Progressive
    Compression mode                         : Lossy
    Bits/(Pixel*Frame)                       : 0.207
    Stream size                              : 463 MiB (84%)
    Writing library                          : XviD 73

    Audio #1
    ID                                       : 1
    Format                                   : MPEG Audio
    Format version                           : Version 1
    Format profile                           : Layer 3
    Mode                                     : Joint stereo
    Mode extension                           : MS Stereo
    Codec ID                                 : 55
    Codec ID/Hint                            : MP3
    Duration                                 : 45mn 16s
    Bit rate mode                            : Constant
    Bit rate                                 : 128 Kbps
    Channel(s)                               : 2 channels
    Sampling rate                            : 48.0 KHz
    Compression mode                         : Lossy
    Stream size                              : 41.5 MiB (8%)
    Alignment                                : Aligned on interleaves
    Interleave, duration                     : 42 ms (1.00 video frame)
    Interleave, preload duration             : 504 ms

    Audio #2
    ID                                       : 2
    Format                                   : MPEG Audio
    Format version                           : Version 1
    Format profile                           : Layer 3
    Mode                                     : Joint stereo
    Codec ID                                 : 55
    Codec ID/Hint                            : MP3
    Duration                                 : 45mn 16s
    Bit rate mode                            : Constant
    Bit rate                                 : 128 Kbps
    Channel(s)                               : 2 channels
    Sampling rate                            : 48.0 KHz
    Compression mode                         : Lossy
    Stream size                              : 41.5 MiB (8%)
    Alignment                                : Aligned on interleaves
    Interleave, duration                     : 42 ms (1.00 video frame)
    Interleave, preload duration             : 504 ms
    Writing library                          : LAME3.99r
    Encoding settings                        : -m j -V 4 -q 2 -lowpass 17 -b 128




    Скриншоты:


    Раздача ведётся путём добавления новых серий. Добавлена 1 серия (15.08.2015).Просьба перекачать торрент файл.

    pb.wtf



  • Скачать Люцифер через торрент http://i72.fastpic.ru/big/2015/0815/84/069de1f15fb93c903de4a136d2383984.jpeg Скачать фильм Люцифер через торрент бесплантно в хорошем качестве Описание: Заскучавший и несчастный повелитель преисподней, Люцифер Морнингстар оставил свой престол и отправился в современный ... 10 10 5
    Торрент: Зарегистрирован [2015-08-15 02:28] · скачан: 202 раз
    Статус: √ проверено
    Размер: 550 MB
    Как cкачать? Как скачать Люцифер через торрент | qTorrent

    % Раздел Тема Автор DL S | L
    Зарубежные сериалы [ 7.02 GB ] Люцифер / Lucifer / Сезон 1 / Серии 1-13 из 13 [2016 BDRip] MVO [BaibaKo] bober100 Скачать
    1 | 0
    Зарубежные сериалы [ 18.91 GB ] Люцифер / Lucifer/ Сезон: 1 / Серии 1-13 из 13 [2015 WEB-DL 720р MVO] [NewStudio] GEKADOL Скачать
    1 | 0
    R.G.Resident - Сериалы, Видео [ 1.5 GB ] Люцифер / Lucifer/ Сезон: 1 / Серии 1-9 из 13 [2016 WEB-DLRip ] MVO [BaibaKo] Стpана Скачать
    1 | 0
    Зарубежные сериалы [ 10.82 GB ] Люцифер / Lucifer/ Сезон: 1 / Серии 1-13 из 13 [2015 BDRip-AVC] MVO [BaibaKo] GEKADOL Скачать
    1 | 0
    Зарубежные сериалы [ 7.01 GB ] Люцифер / Lucifer/ Сезон: 1 / Серии 1-13 из 13 [2016 WEB-DLRip] [MVO] + [Orig] killermax2013 Скачать
    2 | 0

    28-11-2019 20:33  

    Отключить всю рекламу на сайте

      Дорогой пользователь! Огромная просьба, поблагодарите релизера, оцените раздачу и оставьте свои комментарий, если Вы скачали Люцифер через торрент бесплатно! Внесите свою лепту в развитие PiratBit!
      Комментировать посты могут только пользователи прошедшие не сложную регистрацию
      Показать сообщения:    

      Люцифер через торрент
      Скачать бесплатно Люцифер
      Люцифер скачать торрент
      Люцифер смотреть онлайн
      Cкачать фильм Люцифер бесплатно
      Люцифер скачать торрент в хорошем качестве
      Люцифер смотреть онлайн бесплатно в хорошем качестве


      Вы не можете начинать темы
      Вы не можете отвечать на сообщения
      Вы не можете редактировать свои сообщения
      Вы не можете удалять свои сообщения
      Вы не можете голосовать в опросах
      Вы не можете прикреплять файлы к сообщениям
      Вы можете скачивать файлы