Ссылка на приватное зеркало всего за 1$. Внимание количество ограничено!!!

iTunes

iTunes

iTunes

1

iTunes

iTunes

iTunes

iTunes

iTunes

30
pack

$ от Little Big

ВАЖНО

!!Акция!!

Alien_RageХит недели

RePack

Resident Evil 21

ИГРА 18+

pack

RePack

jed

!!Акция!!

Alien_Rage

RePack

fifa19

RePack

Assassins Creed: Odyssey

RePack

NEED FOR SPEED™ PAYBACK

4 сезон

9 сезон

Бесстыжие 9 сезон

Все сериалы

все сериалы на PB.wtf

RePack

FAR CRY 5
  

Корпорация «Бессмертие» / Freejack (Джеф Мерфи) [1992 г., фантастика, боевик, триллер, криминал, WEB-DL 1080p] DUB, 3xAVO pb.wtf

Корпорация «Бессмертие» через торрент pb.wtf

Размер: 4.11 GB | Добавлен: 4 года 10 мес. назад | Торрент скачан:124 раза
Скачать  

15-08-2015 06:55 Корпорация «Бессмертие» Скачать торрент  

Корпорация «Бессмертие» / Freejack
Год выпуска: 1992
Страна: США
Жанр: фантастика, боевик, триллер, криминал
Продолжительность: 01:49:33
Перевод: Дубляж; Авторский одноголосый
Субтитры: Русские; Английские

Режиссер: Джеф Мерфи
Продюссер: Стюарт Окен, Рональд Шусетт, Джо Элвс
Сценарий: Стивен Прессфилд, Рональд Шусетт, Дэн Гилрой

Бюджет: $30 000 000
Премьера в мире: 17 января 1992

IMDB 5.30 (11 657)


В ролях: Эмилио Эстевес, Мик Джаггер, Рене Руссо, Энтони Хопкинс, Джонатан Бэнкс, Дэвид Джохансен, Аманда Пламмер, Гранд Л. Буш, Фрэнки Фэйзон, Джон Ши
Роли дублировали: Сергей Чекан, Владимир Вихров, Наталья Казначеева, Алексей Борзунов, Владимир Конкин

Описание: Гонщик Алекс Ферлонг разбивается на трассе на глазах у своей невесты Джулии. Но он не погибает — с помощью технологий будущего его переносят из 1991 в 2009. Оказывается, в будущем разработаны технологии, позволяющие перенести разум человека из старого тела в новое, что фактически дает возможность обрести «бессмертие», при этом личность «человека-донора» стирается. Перемещают донора в будущее за мгновение до смерти.Оказавшемуся в будущем Алексу не успевают стереть личность — он сбегает благодаря удачному стечению обстоятельств — внезапному нападению, устроенному неизвестными, на кортеж перевозивший передвижную лабораторию в которую он попал сразу после своей якобы кончины. Его невеста за это время стала вторым лицом в могущественной фирме, и Ферлонг пытается найти её и обратиться к ней за помощью. Но сначала он встречается со своим старым другом Бредом, который объясняет ему наконец, что к чему и предлагает связаться с Джулией. Но вскоре Алекс понимает, что не может доверять своим старым друзьям из 1991 года. А по пятам за беглецом идет глава службы безопасности — Вэсендек.

Качество: WEB-DL 1080p
Формат: MKV
Видео кодек: AVC
Аудио кодек: AC3; AAC LC
Видео: AVC, 3646 Кбит/сек, 1916x804, 23.976 кадр/сек
Аудио#1: AC3, 224 Кбит/сек, 2 канала, 48 КГц - Дубляж
Аудио#2: AC3, 192 Кбит/сек, 2 канала, 48 КГц - Гаврилов
Аудио#3: AC3, 384 Кбит/сек, 6 каналов, 48 КГц - Карцев
Аудио#4: AC3, 384 Кбит/сек, 6 каналов, 48 КГц - Сербин
Аудио#5: AAC LC, 157 Кбит/сек, 2 канала, 48 КГц - eng
Аудио#6: AC3, 384 Кбит/сек, 6 каналов, 48 КГц - eng


General
Unique ID : 204575599850694305742351992731706249702 (0x99E7D3CE264C648C8E8C5EBA3756D1E6)
Complete name : D:\Proba\Freejack.1992.1080p.WEB-DL.H264.AC3.5.1.BADASSMEDIA\Freejack.1992.1080p.WEB-DL.mkv
Format : Matroska
Format version : Version 4 / Version 2
File size : 4.11 GiB
Duration : 1h 49mn
Overall bit rate : 5 368 Kbps
Encoded date : UTC 2015-08-15 04:26:18
Writing application : mkvmerge v8.2.0 ('World of Adventure') 64bit
Writing library : libebml v1.3.1 + libmatroska v1.4.2
DURATION : 01:41:36.016000000
NUMBER_OF_FRAMES : 1382
NUMBER_OF_BYTES : 63474
_STATISTICS_WRITING_APP : mkvmerge v8.2.0 ('World of Adventure') 64bit
_STATISTICS_WRITING_DATE_UT : 2015-08-15 04:26:18
_STATISTICS_TAGS : BPS DURATION NUMBER_OF_FRAMES NUMBER_OF_BYTES

Video
ID : 1
Format : AVC
Format/Info : Advanced Video Codec
Format profile : High@L4
Format settings, CABAC : Yes
Format settings, ReFrames : 5 frames
Codec ID : V_MPEG4/ISO/AVC
Duration : 1h 49mn
Width : 1 916 pixels
Height : 804 pixels
Display aspect ratio : 2.40:1
Frame rate mode : Constant
Frame rate : 23.976 fps
Color space : YUV
Chroma subsampling : 4:2:0
Bit depth : 8 bits
Scan type : Progressive
Language : English
Default : Yes
Forced : No
Color range : Limited
Color primaries : BT.709
Transfer characteristics : BT.709
Matrix coefficients : BT.709

Audio #1
ID : 2
Format : AC-3
Format/Info : Audio Coding 3
Mode extension : CM (complete main)
Format settings, Endianness : Big
Codec ID : A_AC3
Duration : 1h 49mn
Bit rate mode : Constant
Bit rate : 224 Kbps
Channel(s) : 2 channels
Channel positions : Front: L R
Sampling rate : 48.0 KHz
Compression mode : Lossy
Delay relative to video : 900ms
Stream size : 176 MiB (4%)
Title : Дубляж
Language : Russian
Default : Yes
Forced : No

Audio #2
ID : 3
Format : AC-3
Format/Info : Audio Coding 3
Mode extension : CM (complete main)
Format settings, Endianness : Big
Codec ID : A_AC3
Duration : 1h 49mn
Bit rate mode : Constant
Bit rate : 192 Kbps
Channel(s) : 2 channels
Channel positions : Front: L R
Sampling rate : 48.0 KHz
Compression mode : Lossy
Delay relative to video : 800ms
Stream size : 150 MiB (4%)
Title : Гаврилов
Language : Russian
Default : No
Forced : No

Audio #3
ID : 4
Format : AC-3
Format/Info : Audio Coding 3
Mode extension : CM (complete main)
Format settings, Endianness : Big
Codec ID : A_AC3
Duration : 1h 49mn
Bit rate mode : Constant
Bit rate : 384 Kbps
Channel(s) : 6 channels
Channel positions : Front: L C R, Side: L R, LFE
Sampling rate : 48.0 KHz
Compression mode : Lossy
Delay relative to video : 800ms
Stream size : 301 MiB (7%)
Title : Карцев
Language : Russian
Default : No
Forced : No

Audio #4
ID : 5
Format : AC-3
Format/Info : Audio Coding 3
Mode extension : CM (complete main)
Format settings, Endianness : Big
Codec ID : A_AC3
Duration : 1h 49mn
Bit rate mode : Constant
Bit rate : 384 Kbps
Channel(s) : 6 channels
Channel positions : Front: L C R, Side: L R, LFE
Sampling rate : 48.0 KHz
Compression mode : Lossy
Delay relative to video : 800ms
Stream size : 301 MiB (7%)
Title : Сербин
Language : Russian
Default : No
Forced : No

Audio #5
ID : 6
Format : AAC
Format/Info : Advanced Audio Codec
Format profile : LC
Codec ID : A_AAC
Duration : 1h 49mn
Channel(s) : 2 channels
Channel positions : Front: L R
Sampling rate : 48.0 KHz
Compression mode : Lossy
Language : English
Default : No
Forced : No

Audio #6
ID : 7
Format : AC-3
Format/Info : Audio Coding 3
Mode extension : CM (complete main)
Format settings, Endianness : Big
Codec ID : A_AC3
Duration : 1h 49mn
Bit rate mode : Constant
Bit rate : 384 Kbps
Channel(s) : 6 channels
Channel positions : Front: L C R, Side: L R, LFE
Sampling rate : 48.0 KHz
Compression mode : Lossy
Stream size : 301 MiB (7%)
Language : English
Default : No
Forced : No

Text #1
ID : 8
Format : UTF-8
Codec ID : S_TEXT/UTF8
Codec ID/Info : UTF-8 Plain Text
Language : Russian
Default : No
Forced : No

Text #2
ID : 9
Format : UTF-8
Codec ID : S_TEXT/UTF8
Codec ID/Info : UTF-8 Plain Text
Language : English
Default : No
Forced : No

Menu
00:00:00.000 : en:Chapter 1.
00:02:24.000 : en:Chapter 2.
00:06:00.000 : en:Chapter 3.
00:07:42.000 : en:Chapter 4.
00:09:25.000 : en:Chapter 5.
00:11:06.000 : en:Chapter 6.
00:13:42.000 : en:Chapter 7.
00:14:52.000 : en:Chapter 8.
00:17:21.000 : en:Chapter 9.
00:20:14.000 : en:Chapter 10.
00:25:12.000 : en:Chapter 11.
00:30:39.000 : en:Chapter 12.
00:33:04.000 : en:Chapter 13.
00:38:45.000 : en:Chapter 14.
00:42:22.000 : en:Chapter 15.
00:47:04.000 : en:Chapter 16.
00:51:45.000 : en:Chapter 17.
00:55:05.000 : en:Chapter 18.
01:00:37.000 : en:Chapter 19.
01:02:21.000 : en:Chapter 20.
01:04:49.000 : en:Chapter 21.
01:09:59.000 : en:Chapter 22.
01:18:07.000 : en:Chapter 23.
01:21:06.000 : en:Chapter 24.
01:26:27.000 : en:Chapter 25.
01:29:21.000 : en:Chapter 26.
01:34:02.000 : en:Chapter 27.
01:36:12.000 : en:Chapter 28.
01:38:27.000 : en:Chapter 29.
01:41:36.000 : en:Chapter 30.
01:44:12.000 : en:Chapter 31.


Корпорация «Бессмертие» скачать торрент


pb.wtf



Скачать Корпорация «Бессмертие» через торрент http://pic.kartinco.top/images/11/2efe9.jpg Скачать фильм Корпорация «Бессмертие» через торрент бесплантно в хорошем качестве Описание: Гонщик Алекс Ферлонг разбивается на трассе на глазах у своей невесты Джулии. Но он не погибает — с помощью технологий будущего ... 8.8 10 19
Торрент: Зарегистрирован [2015-08-15 06:55] · скачан: 124 раз
Статус: √ проверено
Размер: 4.11 GB
Как cкачать? Как скачать Корпорация «Бессмертие» через торрент | qTorrent

28-11-2019 20:33  

Отключить всю рекламу на сайте

15-08-2015 07:44 Корпорация «Бессмертие» Скачать торрент  

Спасибо за классику!!! Беру без раздумия!!!pb.wtf



15-08-2015 07:49 Корпорация «Бессмертие» Скачать торрент  

здорово-спасибо pb.wtf



    Дорогой пользователь! Огромная просьба, поблагодарите релизера, оцените раздачу и оставьте свои комментарий, если Вы скачали Корпорация «Бессмертие» через торрент бесплатно! Внесите свою лепту в развитие PiratBit!
    Комментировать посты могут только пользователи прошедшие не сложную регистрацию
    Показать сообщения:    

    Корпорация «Бессмертие» через торрент
    Скачать бесплатно Корпорация «Бессмертие»
    Корпорация «Бессмертие» скачать торрент
    Корпорация «Бессмертие» смотреть онлайн
    Cкачать фильм Корпорация «Бессмертие» бесплатно
    Корпорация «Бессмертие» скачать торрент в хорошем качестве
    Корпорация «Бессмертие» смотреть онлайн бесплатно в хорошем качестве


    Вы не можете начинать темы
    Вы не можете отвечать на сообщения
    Вы не можете редактировать свои сообщения
    Вы не можете удалять свои сообщения
    Вы не можете голосовать в опросах
    Вы не можете прикреплять файлы к сообщениям
    Вы можете скачивать файлы