Ссылка на приватное зеркало нашего сайта всего за 1$. Внимание количество ограничено!!!

2 сезон

iTunes

1 сезон

1

iTunes

iTunes

iTunes

1 сезон

RePack

30

ИГРА 18+

pack

ВАЖНО

!!Акция!!

Alien_RageХит недели

RePack

MK11
pack

Забери бонус

RePack

jed

!!Акция!!

Alien_Rage

RePack

fifa19

RePack

Assassins Creed: Odyssey

RePack

NEED FOR SPEED™ PAYBACK

4 сезон

9 сезон

Бесстыжие 9 сезон

Все сериалы

все сериалы на PB.wtf

RePack

FAR CRY 5
  

Восставшие из мертвых / Undead (Майкл Спириг, Питер Спириг) [2003, ужасы, фантастика, боевик, комедия, BDRip 1080p от еnvy / NNNB] MVO pb.wtf

Восставшие из мертвых через торрент pb.wtf

Размер: 7.75 GB | Добавлен: 5 лет 2 мес. назад | Торрент скачан:85 раз
Скачать  

15-08-2015 08:13 Восставшие из мертвых Скачать торрент  

Информация о фильме

Русское название: Восставшие из мертвых
Оригинальное название: Undead
Год выхода: 2003
Жанр: ужасы, фантастика, боевик, комедия
Режиссер: Майкл Спириг, Питер Спириг
Выпущено: Австралия
Продолжительность: 01:39:51
Перевод: Профессиональный (многоголосый закадровый)
В ролях: Фелисити Мэйсон, Манго МакКэй, Роб Дженкинс, Лиза Каннингэм, Дирк Хантер, Эмма Рэндолл, Стив Григ, Ноэль Шеридан, Gaynor Wensley, Элинор Стиллман


Сюжет фильма

Провинциальный городок Беркли славен зелеными лугами, хорошей рыбалкой, чистым воздухом и приветливыми жителями. Но всему этому приходит конец, когда на Беркли обрушивается дождь из метеоритов, зараженных внеземной инфекцией.
Один за другим жители городка превращаются в «живых мертвецов», жаждущих человеческой плоти. Те немногие, кто избежал этой участи, прячутся на отдаленной ферме. Но «живые мертвецы» настигают их и здесь. Даже если кому-то и удастся выбраться с фермы, их ждут новые, еще более жуткие испытания…


Файл

Формат: AVC (библиотека кодирования x.264)
Контейнер (Расширение): MKV
Видео кодек: AVC
Аудио кодек:AC3
Качество: BDRip 1080p (исходник Blu-ray Disc Remux)
Видео: 1916x1080, 10290 Кбит/сек, 25,000 кадр/сек, AVC, x264, High@L4.1, 16:9, 0.199 Бит/[Пиксели*Кадры]
Аудио 1: AC-3, 384 Кбит/сек, 6 канала(ов), 48,0 КГц - Многоголосый закадровый, Екатеринбург Арт / Русский
Аудио 2: AC-3, 448 Кбит/сек, 6 канала(ов), 48,0 КГц - Оригинал / Английский
Субтитры: Русские | Полные, Английские | Полные
Форсированные субтитры: Нет
Чаптеры (Главы): Нет









Автор Рипа: Сообщество:


Код:

Format                      : Matroska
Format version              : Version 2
File size                   : 7.75 GiB
Duration                    : 1h 39mn
Overall bit rate            : 11.1 Mbps
Movie name                  : Восставшие из мертвых.(2003).BDRip.1080p.[envy]
Encoded date                : UTC 2015-08-15 07:27:12
Writing application         : mkvmerge v5.8.0 ('No Sleep / Pillow') built on Sep  2 2012 15:37:04
Writing library             : libebml v1.2.3 + libmatroska v1.3.0

Video
ID                          : 1
Format                      : AVC
Format/Info                 : Advanced Video Codec
Format profile              : High@L4.1
Format settings, CABAC      : Yes
Format settings, ReFrames   : 4 frames
Codec ID                    : V_MPEG4/ISO/AVC
Duration                    : 1h 39mn
Bit rate                    : 10.3 Mbps
Width                       : 1 916 pixels
Height                      : 1 080 pixels
Display aspect ratio        : 16:9
Frame rate mode             : Constant
Frame rate                  : 25.000 fps
Color space                 : YUV
Chroma subsampling          : 4:2:0
Bit depth                   : 8 bits
Scan type                   : Progressive
Bits/(Pixel*Frame)          : 0.199
Stream size                 : 7.02 GiB (91%)
Title                       : Восставшие из мертвых.(2003).BDRip.1080p.[envy]
Writing library             : x264 core 148 r2579 73ae2d1
Encoding settings           : cabac=1 / ref=4 / deblock=1:-3:-3 / analyse=0x3:0x133 / me=umh / subme=11 / psy=1 / psy_rd=1.00:0.00 / mixed_ref=1 / me_range=48 / chroma_me=1 / trellis=2 / 8x8dct=1 / cqm=0 / deadzone=21,11 / fast_pskip=0 / chroma_qp_offset=-2 / threads=12 / lookahead_threads=2 / sliced_threads=0 / nr=0 / decimate=1 / interlaced=0 / bluray_compat=0 / constrained_intra=0 / bframes=7 / b_pyramid=2 / b_adapt=2 / b_bias=0 / direct=3 / weightb=1 / open_gop=0 / weightp=2 / keyint=250 / keyint_min=25 / scenecut=40 / intra_refresh=0 / rc=2pass / mbtree=0 / bitrate=10290 / ratetol=2.0 / qcomp=0.60 / qpmin=0 / qpmax=69 / qpstep=4 / cplxblur=20.0 / qblur=0.5 / ip_ratio=1.40 / pb_ratio=1.30 / aq=2:0.80
Language                    : English
Default                     : Yes
Forced                      : No

Audio #1
ID                          : 2
Format                      : AC-3
Format/Info                 : Audio Coding 3
Mode extension              : CM (complete main)
Format settings, Endianness : Big
Codec ID                    : A_AC3
Duration                    : 1h 39mn
Bit rate mode               : Constant
Bit rate                    : 384 Kbps
Channel(s)                  : 6 channels
Channel positions           : Front: L C R, Side: L R, LFE
Sampling rate               : 48.0 KHz
Compression mode            : Lossy
Stream size                 : 274 MiB (3%)
Title                       : MVO
Language                    : Russian
Default                     : Yes
Forced                      : No

Audio #2
ID                          : 3
Format                      : AC-3
Format/Info                 : Audio Coding 3
Mode extension              : CM (complete main)
Format settings, Endianness : Big
Codec ID                    : A_AC3
Duration                    : 1h 39mn
Bit rate mode               : Constant
Bit rate                    : 448 Kbps
Channel(s)                  : 6 channels
Channel positions           : Front: L C R, Side: L R, LFE
Sampling rate               : 48.0 KHz
Compression mode            : Lossy
Stream size                 : 320 MiB (4%)
Title                       : Eng
Language                    : English
Default                     : No
Forced                      : No

Text #1
ID                          : 4
Format                      : UTF-8
Codec ID                    : S_TEXT/UTF8
Codec ID/Info               : UTF-8 Plain Text
Title                       : Rus full
Language                    : Russian
Default                     : No
Forced                      : No

Text #2
ID                          : 5
Format                      : UTF-8
Codec ID                    : S_TEXT/UTF8
Codec ID/Info               : UTF-8 Plain Text
Title                       : Eng full
Language                    : English
Default                     : No
Forced                      : No


Самые распространенные форматы изображения:
pb.wtf



Скачать Восставшие из мертвых через торрент http://www.firepic.org/images/2015-08/15/pa7bjkvo9bn6.png Скачать фильм Восставшие из мертвых через торрент бесплантно в хорошем качестве В ролях: Фелисити Мэйсон, Манго МакКэй, Роб Дженкинс, Лиза Каннингэм, Дирк Хантер, Эмма Рэндолл, Стив Григ, Ноэль Шеридан, Gaynor Wensley, ... 8.9 10 8
Info! Золотая раздача, скачанное не засчитывается.
Торрент: Зарегистрирован [2015-08-15 08:13] · скачан: 85 раз
Статус: √ проверено
Размер: 7.75 GB
Как cкачать? Как скачать Восставшие из мертвых через торрент | qTorrent

% Раздел Тема Автор DL S | L
T Фильмы (мультфильмы) cо спонсором показа (Новинки AVI/MKV) [ 3.46 GB ] Отряд мертвецов: Храм восставших из мертвых / Dead Squad: Temple of the Undead [2018 WEB-DL 720p] MVO ["Синема УС"] bober100 Скачать
1 | 0
T Фильмы (мультфильмы) cо спонсором показа (Новинки AVI/MKV) [ 1.37 GB ] Отряд мертвецов: Храм восставших из мертвых / Dead Squad: Temple of the Undead [2018 WEB-DLRip] MVO ["Синема УС"] bober100 Скачать
1 | 0
Фильмы 2001-2005 [ 2.22 GB ] Восставшие из мертвых / Undead [2003 BDRip MVO] byblackmexx Скачать
1 | 0

28-11-2019 20:33  

Отключить всю рекламу на сайте

16-08-2015 19:37 Восставшие из мертвых Скачать торрент  

спасибо за работу!pb.wtf



    Дорогой пользователь! Огромная просьба, поблагодарите релизера, оцените раздачу и оставьте свои комментарий, если Вы скачали Восставшие из мертвых через торрент бесплатно! Внесите свою лепту в развитие PiratBit!
    Комментировать посты могут только пользователи прошедшие не сложную регистрацию
    Показать сообщения:    

    Восставшие из мертвых через торрент
    Скачать бесплатно Восставшие из мертвых
    Восставшие из мертвых скачать торрент
    Восставшие из мертвых смотреть онлайн
    Cкачать фильм Восставшие из мертвых бесплатно
    Восставшие из мертвых скачать торрент в хорошем качестве
    Восставшие из мертвых смотреть онлайн бесплатно в хорошем качестве


    Вы не можете начинать темы
    Вы не можете отвечать на сообщения
    Вы не можете редактировать свои сообщения
    Вы не можете удалять свои сообщения
    Вы не можете голосовать в опросах
    Вы не можете прикреплять файлы к сообщениям
    Вы можете скачивать файлы