Мега распродажа FORZA HORIZON 4 ULTIMATE+ВСЕ DLC+ОНЛАЙН всего за 499р. 349 руб. (супер цена). Внимание количество ограничено!!!

Лицензия

30

iTunes

мы

iTunes

1

1 сезон

Чернобыль

1 сезон

Ральф против интернета

MVO

Покемон. Детектив Пикачу

8 сезон

Игра престолов

iTunes

1+1

ИГРА 18+

pack

ВАЖНО

!!Акция!!

Alien_RageХит недели

RePack

Resident Evil 21
pack

RePack

Metro:Exodus

!!Акция!!

Alien_Rage

RePack

fifa19

RePack

Assassins Creed: Odyssey

RePack

NEED FOR SPEED™ PAYBACK

3 сезон

9 сезон

Бесстыжие 9 сезон

Все сериалы

все сериалы на PB.wtf

RePack

FAR CRY 5
Ребята, катастрофически не хватает 2730р. для оплаты серверов за МАЙ (всвязи с блокировками трафик упал в 3 раза), 1-2р., выручайте.
  

Посланник / The Messenger (Орен Моверман / Oren Moverman) [2009, драма, мелодрама, военный, BDRip-AVC от potroks] MVO [Лицензия] pb.wtf

Посланник через торрент pb.wtf

Размер: 1.46 GB | Добавлен: 3 года 10 мес. назад | Торрент скачан:83 раза
Скачать  

15-08-2015 12:35 Посланник Скачать торрент  

Посланник / The Messenger
«Эта сторона войны всегда была закрыта для посторонних глаз»
Год выпуска: 2009
Страна: США / Oscilloscope Laboratories, Omnilab Media, Sherazade Film Development...
Жанр: драма, мелодрама, военный
Продолжительность: 01:52:54
Перевод: Профессиональный многоголосый [R5]
Субтитры: русские
Навигация по главам: есть
Режиссер: Орен Моверман / Oren Moverman
В ролях:

Бен Фостер (Staff Sergeant Will Montgomery), Вуди Харрельсон (Captain Tony Stone), Саманта Мортон (Olivia Pitterson), Джена Мэлоун (Kelly), Стив Бушеми (Dale Martin), Имонн Уолкер (Colonel Stuart Dorsett), Йайа ДаКоста (Monica Washington), Портия (Mrs. Burrell), Лиза Джойс (Emily), Питер Френсис Джеймс (Dr. Grosso), Пол Диомед (Motorcycle Cop), Джамир Дюран-Абро (Matt Pitterson)
Описание: Обязанности сержанта армии Соединенных Штатов Уилла Монтгомери просты и печальны - он должен лично сообщать жёнам погибших солдат о том, что их мужья не вернутся с фронта живыми. Сложно представить этическую дилемму «посланника смерти», ведь у сержанта Монтгомери появились чувства к одной из солдатских вдов.

Качество: BDRip-AVC
Формат: MKV
Видео кодек: AVC
Аудио кодек: AC3
Видео: AVC, 960x408 (2.35:1), 1404 kbps, 23,976 fps, 0,150 bit/pixel
Аудио: русский / AC3 / 5.1 / 48 kHz / 448 kbps / 16 bit
Релиз группы:
Автор рипа: potroks

Код:

General
Unique ID                                : 215002630029882076078949457655344250209 (0xA1C000159AB5D6AB9267C4C89609BD61)
Complete name                            : N:\Военный\Poslannik.2009.RUS.BDRip.x264.-HELLYWOOD.mkv
Format                                   : Matroska
Format version                           : Version 4 / Version 2
File size                                : 1.46 GiB
Duration                                 : 1h 52mn
Overall bit rate                         : 1 853 Kbps
Movie name                               : The Messenger (2009) - HELLYWOOD
Encoded date                             : UTC 2015-08-15 09:00:32
Writing application                      : mkvmerge v5.9.0 ('On The Loose') built on Dec 15 2012 16:39:58
Writing library                          : libebml v1.3.0 + libmatroska v1.4.0

Video
ID                                       : 1
Format                                   : AVC
Format/Info                              : Advanced Video Codec
Format profile                           : High@L4.1
Format settings, CABAC                   : Yes
Format settings, ReFrames                : 12 frames
Codec ID                                 : V_MPEG4/ISO/AVC
Duration                                 : 1h 52mn
Bit rate                                 : 1 404 Kbps
Width                                    : 960 pixels
Height                                   : 408 pixels
Display aspect ratio                     : 2.35:1
Frame rate                               : 23.976 fps
Color space                              : YUV
Chroma subsampling                       : 4:2:0
Bit depth                                : 8 bits
Scan type                                : Progressive
Bits/(Pixel*Frame)                       : 0.150
Stream size                              : 1.08 GiB (74%)
Title                                    : potroks
Writing library                          : x264 core 146 r2538 121396c
Encoding settings                        : cabac=1 / ref=12 / deblock=1:-2:-2 / analyse=0x3:0x113 / me=umh / subme=11 / psy=1 / psy_rd=1.00:0.05 / mixed_ref=1 / me_range=48 / chroma_me=1 / trellis=2 / 8x8dct=1 / cqm=0 / deadzone=21,11 / fast_pskip=0 / chroma_qp_offset=-3 / threads=9 / lookahead_threads=2 / sliced_threads=0 / nr=0 / decimate=1 / interlaced=0 / bluray_compat=0 / constrained_intra=0 / bframes=13 / b_pyramid=2 / b_adapt=2 / b_bias=0 / direct=3 / weightb=1 / open_gop=0 / weightp=2 / keyint=250 / keyint_min=23 / scenecut=40 / intra_refresh=0 / rc_lookahead=60 / rc=2pass / mbtree=0 / bitrate=1404 / ratetol=1.0 / qcomp=0.70 / qpmin=0 / qpmax=69 / qpstep=4 / cplxblur=20.0 / qblur=0.5 / vbv_maxrate=14000 / vbv_bufsize=14000 / nal_hrd=none / filler=0 / ip_ratio=1.35 / pb_ratio=1.25 / aq=1:0.80
Language                                 : English
Default                                  : Yes
Forced                                   : No

Audio
ID                                       : 2
Format                                   : AC-3
Format/Info                              : Audio Coding 3
Mode extension                           : CM (complete main)
Codec ID                                 : A_AC3
Duration                                 : 1h 52mn
Bit rate mode                            : Constant
Bit rate                                 : 448 Kbps
Channel(s)                               : 6 channels
Channel positions                        : Front: L C R, Side: L R, LFE
Sampling rate                            : 48.0 KHz
Bit depth                                : 16 bits
Compression mode                         : Lossy
Stream size                              : 362 MiB (24%)
Title                                    : MVO | DD 5.1 @ 448 kbps - R5
Language                                 : Russian
Default                                  : Yes
Forced                                   : No

Text
ID                                       : 3
Format                                   : UTF-8
Codec ID                                 : S_TEXT/UTF8
Codec ID/Info                            : UTF-8 Plain Text
Language                                 : Russian
Default                                  : No
Forced                                   : No

Menu
00:00:00.000                             : en:(01)00:00:00:000
00:05:24.615                             : en:(02)00:05:24:615
00:12:00.136                             : en:(03)00:12:00:136
00:18:46.792                             : en:(04)00:18:46:792
00:25:29.903                             : en:(05)00:25:29:903
00:33:54.073                             : en:(06)00:33:54:073
00:39:13.225                             : en:(07)00:39:13:225
00:42:32.091                             : en:(08)00:42:32:091
00:47:31.431                             : en:(09)00:47:31:431
00:54:47.450                             : en:(10)00:54:47:450
00:59:16.094                             : en:(11)00:59:16:094
01:04:25.278                             : en:(12)01:04:25:278
01:12:41.899                             : en:(13)01:12:41:899
01:18:24.199                             : en:(14)01:18:24:199
01:24:28.521                             : en:(15)01:24:28:521
01:33:47.288                             : en:(16)01:33:47:288
01:43:41.006                             : en:(17)01:43:41:006
01:47:10.006                             : en:(18)01:47:10:006
01:52:54.559                             : en:(19)01:52:54:559

pb.wtf



Скачать Посланник через торрент http://i71.fastpic.ru/big/2015/0815/98/68f36a42618379dd8d2c86d8a6178598.png Скачать фильм Посланник через торрент бесплантно в хорошем качестве Описание: Обязанности сержанта армии Соединенных Штатов Уилла Монтгомери просты и печальны - он должен лично сообщать жёнам погибших ... 9.7 10 3
Торрент: Зарегистрирован [2015-08-15 12:35] · скачан: 83 раз
Статус: √ проверено
Размер: 1.46 GB
Как cкачать? Как скачать Посланник через торрент | qTorrent

% Раздел Тема Автор DL S | L
Зарубежные сериалы [ 12.01 GB ] Пристрелите посланника / Shoot the Messenger / Сезон: 1 / Серии: 1-8 из 8 [2016 WEB-DL 720p] MVO [Jaskier] bober100 Скачать
1 | 0
Зарубежные сериалы [ 14.84 GB ] Пристрелите посланника / Shoot the Messenger / Сезон: 1 / Серии: 1-8 из 8 [2016 WEB-DL 1080p] MVO [Jaskier] bober100 Скачать
1 | 0
Зарубежные сериалы [ 4.3 GB ] Пристрелите посланника / Shoot the Messenger / Сезон: 1 / Серии: 1-8 из 8 [2016 WEB-DLRip] MVO [Jaskier] bober100 Скачать
1 | 0
Зарубежные сериалы [ 3.34 GB ] Пристрелите посланника / Shoot the Messenger / 1 сезон / 1-8 из 8 [2016 WEB-DLRip/HDTVRip] DVO [ColdFilm] bober100 Скачать
1 | 0
Фильмы [HD 720p, 1080p] (Хороший звук DUB, MVO) [ 7.73 GB ] Посланники / The Messengers [2007 BDRip 1080p от еnvy / NNNB] DUB DVO AVO еnvy Скачать
3 | 0
Зарубежные сериалы [ 2.41 GB ] Пристрелите посланника / Shoot the Messenger / Сезон: 1 / Серии 1-3 из 8 [2016 WEB-DLRip-AVC] MVO [BaibaKo] GEKADOL Скачать
1 | 0
T Фильмы 2015 (Звук TS, Cam, VO, DVO) [ 1.45 GB ] Посланник / The Messenger [2015 WEB-DLRip Любительский двухголосый [Parovoz Production] Ворон Скачать
1 | 0


>> Регистрируемся здесь <<






Отзывы и комментарии о схеме читаем и пишем здесь: ---> Отзывы и комментарии о схеме

Новые благодарочки в телеграм довольных пользователей:
скриншот   скриншот   скриншот   скриншот   скриншот

10-03-2016 16:29 Посланник Скачать торрент  

спасибо!pb.wtf



    Дорогой пользователь! Огромная просьба, поблагодарите релизера, оцените раздачу и оставьте свои комментарий, если Вы скачали Посланник через торрент бесплатно! Внесите свою лепту в развитие PiratBit!
    Комментировать посты могут только пользователи прошедшие не сложную регистрацию
    Показать сообщения:    

    Посланник через торрент
    Скачать бесплатно Посланник
    Посланник скачать торрент
    Посланник смотреть онлайн
    Cкачать фильм Посланник бесплатно
    Посланник скачать торрент в хорошем качестве
    Посланник смотреть онлайн бесплатно в хорошем качестве


    Вы не можете начинать темы
    Вы не можете отвечать на сообщения
    Вы не можете редактировать свои сообщения
    Вы не можете удалять свои сообщения
    Вы не можете голосовать в опросах
    Вы не можете прикреплять файлы к сообщениям
    Вы можете скачивать файлы