Anonymous, доброй ночи, присоединяйтесь к нам в Telegram!, здесь всегда актуальный адрес сайта, оперативная поддержка и многое другое!

>

5.6

iTunes

7.4

iTunes

5.7

MVO

1

7.7

1 сезон

6.8

iTunes

7.3

1 сезон

13

6.7

1 сезон

8.3

RePack

30

ULTIMATE

pack

9.9

Лицензия

ВАЖНО

ИГРА 18+

pack

7.3

RePack

MK11

7.7

RePack

jed

7.8

RePack

fifa19

8.5

RePack

RDR2

RePack

NEED FOR SPEED™ PAYBACK

4 сезон

9 сезон

Бесстыжие 9 сезон

Все сериалы

все сериалы на PB.wtf

RePack

FAR CRY 5

Anonymous, доброй ночи, мы катастрофически не успеваем собрать деньги на оплату серверов, помогите нам пожалуйста 5,10,15р., для нас важна любая помощь . В качестве благодарности мы отключим Вам всю рекламу на сайте (укажите свой ник в строку Ваше имя)!

×
  
Magnet ссылка

Академик Иван Павлов (Григорий Рошаль) [1949, СССР, драма, биография, DVDRip от AVP Studio] pb.wtf

Академик Иван Павлов через торрент pb.wtf

Размер: 745 MB | Добавлен: 6 лет 2 мес. назад | Торрент скачан:9 раз
Смотреть онлайн Академик Иван Павлов | Скачать    Ребята, помогите собрать деньги на оплату серверов!!!

15-08-2015 13:46 Академик Иван Павлов Скачать торрент  

Академик Иван Павлов
Страна: СССР
Производство: Ленфильм

Жанр: драма, биография
Год выпуска: 1949
Продолжительность: 01:36:06

Перевод: Не требуется
Cубтитры: нет
Оригинальная аудиодорожка: русский

Режиссер: Григорий Рошаль

В ролях:
Александр Борисов, Нина Алисова, Владимир Честноков, Фёдор Никитин, Владимир Балашов, Николай Плотников, Марьяна Сафонова, Иван Дмитриев, Григорий Шпигель, Василий Софронов, Георгий Бельникевич, Николай Черкасов...
Полный список актёров

Описание:
Иван Петрович Павлов (1849-1936г.г.) - выдающийся ученый-физиолог, нобелевский лауреат, создатель учения о высшей нервной деятельности. Фильм рассказывает о жизни и научной деятельности Павлова с первых его шагов в науке до сенсационных открытий, сыгравших огромную роль в развитии медицины и психологии.

Источник: DVD5 R5
Качество видео: DVDRip
Формат видео: AVI
Видео кодек: XviD
Аудио кодек: MP3
Видео: 576x432 (4:3), 25 fps, XviD ~ 947 kbps avg, 0.152 bit/pixel
Аудио: 48 kHz, MP3 2.0, 128 kbps

Раздача от:
Общее
Полное имя : Akademik.Ivan.Pavlov.1949.DVDRip-745_[New-team]_by_AVP_Studio.avi
Формат : AVI
Формат/Информация : Audio Video Interleave
Размер файла : 745 Мбайт
Продолжительность : 1 ч. 36 м.
Общий поток : 1085 Кбит/сек
Программа кодирования : VirtualDubMod 1.5.10.3 | www.virtualdub-fr.org || (build 2550/release)
Библиотека кодирования : VirtualDubMod build 2550/release

Видео
Идентификатор : 0
Формат : MPEG-4 Visual
Профиль формата : Advanced Simple@L5
Параметр BVOP формата : 1
Параметр QPel формата : Нет
Параметр GMC формата : Без точки перехода
Параметр матрицы формата : Выборочная
Идентификатор кодека : XVID
Идентификатор кодека/Подсказка : XviD
Продолжительность : 1 ч. 36 м.
Битрейт : 947 Кбит/сек
Ширина : 576 пикселей
Высота : 432 пикселя
Соотношение сторон : 4:3
Частота кадров : 25,000 кадров/сек
Цветовое пространство : YUV
Субдискретизация насыщенности : 4:2:0
Битовая глубина : 8 бит
Тип развёртки : Прогрессивная
Метод сжатия : С потерями
Бит/(Пиксели*Кадры) : 0.152
Размер потока : 651 Мбайт (87%)
Библиотека кодирования : XviD 73

Аудио
Идентификатор : 1
Формат : MPEG Audio
Версия формата : Version 1
Профиль формата : Layer 3
Идентификатор кодека : 55
Идентификатор кодека/Подсказка : MP3
Продолжительность : 1 ч. 36 м.
Вид битрейта : Постоянный
Битрейт : 128 Кбит/сек
Каналы : 2 канала
Частота : 48,0 КГц
Метод сжатия : С потерями
Размер потока : 88,0 Мбайт (12%)
Выравнивание : Соединение по промежуткам
Продолжительность промежутка : 40 мс. (1,00 видеокадр)
Время предзагрузки промежутка : 504 мс.
Библиотека кодирования : LAME3.99r
Настройки программы : -m s -V 4 -q 2 -lowpass 17 -b 128
pb.wtf



Скачать Академик Иван Павлов через торрент http://s017.radikal.ru/i403/1508/46/151c0cd118c3.png Скачать, смотреть онлайн Академик Иван Павлов бесплантно в хорошем качестве Описание:Иван Петрович Павлов (1849-1936г.г.) - выдающийся ученый-физиолог, нобелевский лауреат, создатель учения о высшей нервной ... 10 10 2
Торрент: Зарегистрирован [2015-08-15 13:46] · скачан: 9 раз
Статус: √ проверено
Размер: 745 MB
Как cкачать? Как скачать Академик Иван Павлов через торрент | UTorrent

% Раздел Тема Автор DL S | L
Кино СССР [ 1.46 GB ] Академик Иван Павлов [1949 СССР биография DVDRip-AVC от AVP Studio] AVP Studio Скачать
1 | 0
Кино СССР [ 1.46 GB ] Академик Иван Павлов [1949 СССР биография DVDRip от AVP Studio] AVP Studio Скачать
1 | 0

28-11-2019 20:33  

Отключить всю рекламу на сайте

    Дорогой пользователь! Огромная просьба, поблагодарите релизера, оцените раздачу и оставьте свои комментарий, если Вы скачали Академик Иван Павлов через торрент бесплатно!
    Комментировать посты могут только пользователи прошедшие не сложную регистрацию
    Показать сообщения:    

    Академик Иван Павлов через торрент
    Скачать бесплатно Академик Иван Павлов
    Академик Иван Павлов скачать торрент
    Академик Иван Павлов смотреть онлайн
    Cкачать фильм Академик Иван Павлов бесплатно
    Академик Иван Павлов скачать торрент в хорошем качестве
    Академик Иван Павлов смотреть онлайн бесплатно в хорошем качестве


    Вы не можете начинать темы
    Вы не можете отвечать на сообщения
    Вы не можете редактировать свои сообщения
    Вы не можете удалять свои сообщения
    Вы не можете голосовать в опросах
    Вы не можете прикреплять файлы к сообщениям
    Вы можете скачивать файлы