Ссылка на приватное зеркало нашего сайта всего за 1$. Внимание количество ограничено!!!

2 сезон

iTunes

1 сезон

1

2 сезон

2 сезон

iTunes

1 сезон

RePack

30

Ultimate

ВАЖНО

ИГРА 18+

pack

RePack

MK11
pack

Забери бонус

RePack

jed

!!Акция!!

Alien_Rage

RePack

fifa19

RePack

Assassins Creed: Odyssey

RePack

NEED FOR SPEED™ PAYBACK

4 сезон

9 сезон

Бесстыжие 9 сезон

Все сериалы

все сериалы на PB.wtf

RePack

FAR CRY 5
  

Джентльмен грабитель / Electric Slide (Тристан Паттерсон / Tristan Patterson) [2014, США, боевик, триллер, драма, WEB-DL 720p, Дубляж] / Чистый звук + ENG pb.wtf

Джентльмен грабитель через торрент pb.wtf

Размер: 2.97 GB | Добавлен: 5 лет 3 мес. назад | Торрент скачан:215 раз
Скачать  

16-08-2015 02:34 Джентльмен грабитель Скачать торрент  

Джентльмен грабитель / Electric Slide


  • Год выпуска: 2014
  • Страна: США
  • Жанр: боевик, триллер, драма, криминал, биография
  • Продолжительность: 01:31:01
  • Перевод: Дубляж - [Чистый звук]
  • Режиссер: Тристан Паттерсон / Tristan Patterson
  • В ролях:

    Джим Стёрджесс (Eddie Dodson), Изабель Лукас (Pauline), Хлоя Севиньи (Charlotte), Патриция Аркетт (Tina), Кристофер Ламберт (Roy Fortune), Винесса Шоу (Mimi), Констанс Ву (Mika Oh), Мэгалин Эчиканвоке (Jean), Риз Койро (Glen the Mormon), Кортни Палм (Jan's Girl), Джеймс Рэнсон (Jan Phillips), Кендрик Сэмпсон (Ticket Taker, слухи)

  • Описание:
    Речь в фильме пойдет об Эдди Додсоне, владельце мебельного магазина на Мелроуз Авеню в Лос-Анджелесе. Он был знаком со многими знаменитостями, вёл праздный образ жизни - веселился и устраивал вечеринки. Но однажды он влюбился, и чтобы произвести впечатление на любимую девушку, решил ограбить банк.
  • Рейтинг:



  • Качество: WEB-DL 720p
  • Формат: :MKV
  • Видео кодек: AVC
  • Аудио кодек: AC3
  • Видео: 960x530 (2.40:1), 4000 kbps, 25 fps, 0,315 bpp
  • Аудио №1: русский / 2.0 / 48 kHz / 192 kbps / 16 bit |[Чистый звук]|
  • Аудио №2: английский / 5.1 / 48 kHz / 384 kbps / 16 bit
  • Релиз от: GEKADOL

    Код:

    General
    Unique ID                                : 236896690488294270930341454166232099793 (0xB238A49B3D444281945C6A39D95F6BD1)
    Complete name                            : F:\Dzhenteljmen.grabitelj.2014.D.WEBDL.720p.mkv
    Format                                   : Matroska
    Format version                           : Version 4 / Version 2
    File size                                : 2.97 GiB
    Duration                                 : 1h 31mn
    Overall bit rate                         : 4 670 Kbps
    Encoded date                             : UTC 2015-08-15 17:17:09
    Writing application                      : mkvmerge v8.2.0 ('World of Adventure') 64bit
    Writing library                          : libebml v1.3.1 + libmatroska v1.4.2
    DURATION                                 : 01:31:01.056000000
    NUMBER_OF_FRAMES                         : 170658
    NUMBER_OF_BYTES                          : 131065344
    _STATISTICS_WRITING_APP                  : mkvmerge v8.2.0 ('World of Adventure') 64bit
    _STATISTICS_WRITING_DATE_UTC             : 2015-08-15 17:17:09
    _STATISTICS_TAGS                         : BPS DURATION NUMBER_OF_FRAMES NUMBER_OF_BYTES

    Video
    ID                                       : 1
    Format                                   : AVC
    Format/Info                              : Advanced Video Codec
    Format profile                           : Main@L3.1
    Format settings, CABAC                   : No
    Format settings, ReFrames                : 2 frames
    Codec ID                                 : V_MPEG4/ISO/AVC
    Duration                                 : 1h 31mn
    Bit rate                                 : 4 001 Kbps
    Width                                    : 960 pixels
    Height                                   : 530 pixels
    Display aspect ratio                     : 2.40:1
    Frame rate                               : 25.000 fps
    Color space                              : YUV
    Chroma subsampling                       : 4:2:0
    Bit depth                                : 8 bits
    Scan type                                : Progressive
    Bits/(Pixel*Frame)                       : 0.315
    Stream size                              : 2.54 GiB (86%)
    Language                                 : English
    Default                                  : Yes
    Forced                                   : No
    Color primaries                          : BT.709-5, BT.1361, IEC 61966-2-4, SMPTE RP177
    Transfer characteristics                 : BT.709-5, BT.1361
    Matrix coefficients                      : BT.709-5, BT.1361, IEC 61966-2-4 709, SMPTE RP177

    Audio #1
    ID                                       : 2
    Format                                   : AC-3
    Format/Info                              : Audio Coding 3
    Mode extension                           : CM (complete main)
    Codec ID                                 : A_AC3
    Duration                                 : 1h 31mn
    Bit rate mode                            : Constant
    Bit rate                                 : 192 Kbps
    Channel(s)                               : 2 channels
    Channel positions                        : Front: L R
    Sampling rate                            : 48.0 KHz
    Bit depth                                : 16 bits
    Compression mode                         : Lossy
    Stream size                              : 125 MiB (4%)
    Language                                 : Russian
    Default                                  : Yes
    Forced                                   : Yes

    Audio #2
    ID                                       : 3
    Format                                   : AC-3
    Format/Info                              : Audio Coding 3
    Mode extension                           : CM (complete main)
    Codec ID                                 : A_AC3
    Duration                                 : 1h 31mn
    Bit rate mode                            : Constant
    Bit rate                                 : 384 Kbps
    Channel(s)                               : 6 channels
    Channel positions                        : Front: L C R, Side: L R, LFE
    Sampling rate                            : 48.0 KHz
    Bit depth                                : 16 bits
    Compression mode                         : Lossy
    Stream size                              : 250 MiB (8%)
    Language                                 : English
    Default                                  : No
    Forced                                   : No

    Menu
    00:00:00.000                             : en:1
    00:15:00.000                             : en:2
    00:30:00.000                             : en:3
    00:45:00.000                             : en:4
    01:00:00.000                             : en:5
    01:15:00.000                             : en:6




    Скриншоты:



    pb.wtf



  • Скачать Джентльмен грабитель через торрент http://i4.imageban.ru/out/2015/08/16/7e124f0e6184f105cd609e2273b6cf02.jpg Скачать фильм Джентльмен грабитель через торрент бесплантно в хорошем качестве Описание: Речь в фильме пойдет об Эдди Додсоне, владельце мебельного магазина на Мелроуз Авеню в Лос-Анджелесе. Он был знаком со многими ... 9.3 10 13
    Торрент: Зарегистрирован [2015-08-16 02:34] · скачан: 215 раз
    Статус: T временная
    Размер: 2.97 GB
    Как cкачать? Как скачать Джентльмен грабитель через торрент | qTorrent

    28-11-2019 20:33  

    Отключить всю рекламу на сайте

      Дорогой пользователь! Огромная просьба, поблагодарите релизера, оцените раздачу и оставьте свои комментарий, если Вы скачали Джентльмен грабитель через торрент бесплатно! Внесите свою лепту в развитие PiratBit!
      Комментировать посты могут только пользователи прошедшие не сложную регистрацию
      Показать сообщения:    

      Джентльмен грабитель через торрент
      Скачать бесплатно Джентльмен грабитель
      Джентльмен грабитель скачать торрент
      Джентльмен грабитель смотреть онлайн
      Cкачать фильм Джентльмен грабитель бесплатно
      Джентльмен грабитель скачать торрент в хорошем качестве
      Джентльмен грабитель смотреть онлайн бесплатно в хорошем качестве


      Вы не можете начинать темы
      Вы не можете отвечать на сообщения
      Вы не можете редактировать свои сообщения
      Вы не можете удалять свои сообщения
      Вы не можете голосовать в опросах
      Вы не можете прикреплять файлы к сообщениям
      Вы можете скачивать файлы