новый адрес
Мега распродажа FORZA HORIZON 4 ULTIMATE+ВСЕ DLC+ОНЛАЙН всего за 499р. 349 руб. (супер цена). Внимание количество ограничено!!!

iTunes

1+1

iTunes

мы

iTunes

1

iTunes

Чернобыль

iTunes

Ральф против интернета

Лицензия

ПШазам

Лицензия

Оно 2

Лицензия

30
pack

ВАЖНО

!!Акция!!

Alien_RageХит недели

RePack

Resident Evil 21

ИГРА 18+

pack

RePack

Metro:Exodus

!!Акция!!

Alien_Rage

RePack

fifa19

RePack

Assassins Creed: Odyssey

RePack

NEED FOR SPEED™ PAYBACK

3 сезон

9 сезон

Бесстыжие 9 сезон

Все сериалы

все сериалы на PB.wtf

RePack

FAR CRY 5
Ребята, катастрофически не хватает 1900р. для оплаты серверов за Октябрь (всвязи с блокировками трафик упал в 3 раза), 1-2р., выручайте.
  

Даниил - князь Галицкий (Ярослав Лупий) [1987, СССР, драма, история, DVDRip от AVP Studio] pb.wtf

Даниил - князь Галицкий через торрент pb.wtf

Размер: 1.46 GB | Добавлен: 4 года 3 мес. назад | Торрент скачан:12 раз
Скачать  

16-08-2015 08:34 Даниил - князь Галицкий Скачать торрент  

Даниил - князь Галицкий
Страна: СССР
Производство: Одесская киностудия

Жанр: драма, история
Год выпуска: 1987
Продолжительность: 01:33:17

Перевод: не требуется
Оригинальная аудиодорожка: русский
Cубтитры: нет

Режиссер: Ярослав Лупий

В ролях: Иван Гаврилюк, Виктор Евграфов, Сергей Быстрицкий, Михаил Горносталь, Нурмухан Жантурин, Болот Бейшеналиев, Эрнст Романов, Богдан Ступка, Юрий Гребенщиков, Татьяна Гайдук, Вера Кузнецова, М. Иоель, Стефан Мерцало, Константин Артеменко, Николай Волков, Станислав Рий, Святослав Максимчук, Леонардас Зельчюс, Эдгарас Савицкис, Р. Фёдоров, Юрий Дубровин, Виктор Мельник, Франческа Переплетчикова, Юрий Рудченко, Арунас Сторпирштис, Филипп Феоктистов, Виктор Демерташ, Зинаида Дехтярёва, Юрий Вотяков, Алексей Лупий, Олесь Лупий, Михаил Резниченко, Александр Титов, Анна Тогоноева, Олег Цёна, Пётр Шерекин...

Описание: Одно за другим склоняются русские княжества перед полчищами монголо — татар. На западных пограничных Галицко — Волынских землях осели тысячи людей, спасающихся от жестокости кочевников. Некоторое время князю Даниилу удается сохранять относительную независимость. Но вот Батый призывает Даниила в Орду.
Гордостью, смелостью суждений князь производит на хана большое впечатление, и тот отпускает его с миром, даруя право и дальше княжить в Галиче. Вернувшись на родину, Даниил начинает готовиться к войне с Ордой: заключает союз с венгерским королем, привлекает на свою сторону литовцев, поляков и немцев. Но Папа Римский запрещает западным государствам воевать с Батыем. А у Даниила времени на раздумья уже нет: кочевники вторгаются на русские земли. Дружина князя принимает бой…

Исходник: DVD5 R5
Тип релиза: DVDRip
Контейнер: AVI
Видео кодек: XviD
Аудио кодек: AC3
Видео: 704x528 (4:3), 25 fps, XviD ~ 1779 kbps avg, 0.191 bit/pixel
Аудио: 48 kHz, Dolby Digital AC3 5.1, 448 kbps

Раздача от:
Общее
Полное имя : Daniil–knyaz.Galickiy.1987.DVDRip_[New-team]_by_AVP_Studio.avi
Формат : AVI
Формат/Информация : Audio Video Interleave
Размер файла : 1,46 Гбайт
Продолжительность : 1 ч. 33 м.
Общий поток : 2237 Кбит/сек
Программа кодирования : VirtualDubModRus 1.5.10.2 (build 2542/release)
Библиотека кодирования : VirtualDubMod build 2542/release

Видео
Идентификатор : 0
Формат : MPEG-4 Visual
Профиль формата : Advanced Simple@L5
Параметр BVOP формата : 1
Параметр QPel формата : Нет
Параметр GMC формата : Без точки перехода
Параметр матрицы формата : Выборочная
Идентификатор кодека : XVID
Идентификатор кодека/Подсказка : XviD
Продолжительность : 1 ч. 33 м.
Битрейт : 1779 Кбит/сек
Ширина : 704 пикселя
Высота : 528 пикселей
Соотношение сторон : 4:3
Частота кадров : 25,000 кадров/сек
Цветовое пространство : YUV
Субдискретизация насыщенности : 4:2:0
Битовая глубина : 8 бит
Тип развёртки : Прогрессивная
Метод сжатия : С потерями
Бит/(Пиксели*Кадры) : 0.191
Размер потока : 1,16 Гбайт (80%)
Библиотека кодирования : XviD 73

Аудио
Идентификатор : 1
Формат : AC-3
Формат/Информация : Audio Coding 3
Расширение режима : CM (complete main)
Параметр Endianness формата : Big
Идентификатор кодека : 2000
Продолжительность : 1 ч. 33 м.
Вид битрейта : Постоянный
Битрейт : 448 Кбит/сек
Каналы : 6 каналов
Расположение каналов : Front: L C R, Side: L R, LFE
Частота : 48,0 КГц
Битовая глубина : 16 бит
Метод сжатия : С потерями
Размер потока : 299 Мбайт (20%)
Выравнивание : Разделение по промежуткам
Продолжительность промежутка : 40 мс. (1,00 видеокадр)
Время предзагрузки промежутка : 500 мс
pb.wtf



Скачать Даниил - князь Галицкий через торрент http://i57.fastpic.ru/big/2014/0311/52/a3766a674d220e8f9cba7bea32da5352.png Скачать фильм Даниил - князь Галицкий через торрент бесплантно в хорошем качестве Описание: Одно за другим склоняются русские княжества перед полчищами монголо — татар. На западных пограничных Галицко — Волынских землях ... 10 10 1
Торрент: Зарегистрирован [2015-08-16 08:34] · скачан: 12 раз
Статус: √ проверено
Размер: 1.46 GB
Как cкачать? Как скачать Даниил - князь Галицкий через торрент | qTorrent

% Раздел Тема Автор DL S | L
Кино СССР [ 1.37 GB ] Даниил - князь Галицкий [1987 история DVDRip] шурка Скачать
2 | 0
Кино СССР [ 1.46 GB ] Даниил - князь Галицкий [1987 СССР история DVDRip-AVC от AVP Studio] AVP Studio Скачать
1 | 0
Кино СССР [ 745 MB ] Даниил - князь Галицкий [1987 СССР история DVDRip от AVP Studio] AVP Studio Скачать
1 | 0


>> Регистрируемся здесь <<






Отзывы и комментарии о схеме читаем и пишем здесь: ---> Отзывы и комментарии о схеме

Новые благодарочки в телеграм довольных пользователей:
скриншот   скриншот   скриншот   скриншот   скриншот
    Дорогой пользователь! Огромная просьба, поблагодарите релизера, оцените раздачу и оставьте свои комментарий, если Вы скачали Даниил - князь Галицкий через торрент бесплатно! Внесите свою лепту в развитие PiratBit!
    Комментировать посты могут только пользователи прошедшие не сложную регистрацию
    Показать сообщения:    

    Даниил - князь Галицкий через торрент
    Скачать бесплатно Даниил - князь Галицкий
    Даниил - князь Галицкий скачать торрент
    Даниил - князь Галицкий смотреть онлайн
    Cкачать фильм Даниил - князь Галицкий бесплатно
    Даниил - князь Галицкий скачать торрент в хорошем качестве
    Даниил - князь Галицкий смотреть онлайн бесплатно в хорошем качестве


    Вы не можете начинать темы
    Вы не можете отвечать на сообщения
    Вы не можете редактировать свои сообщения
    Вы не можете удалять свои сообщения
    Вы не можете голосовать в опросах
    Вы не можете прикреплять файлы к сообщениям
    Вы можете скачивать файлы