Ссылка на приватное зеркало нашего сайта всего за 1$. Внимание количество ограничено!!!

2 сезон

iTunes

1 сезон

1

iTunes

iTunes

iTunes

1 сезон

RePack

30

ИГРА 18+

pack

ВАЖНО

!!Акция!!

Alien_RageХит недели

RePack

MK11
pack

Забери бонус

RePack

jed

!!Акция!!

Alien_Rage

RePack

fifa19

RePack

Assassins Creed: Odyssey

RePack

NEED FOR SPEED™ PAYBACK

4 сезон

9 сезон

Бесстыжие 9 сезон

Все сериалы

все сериалы на PB.wtf

RePack

FAR CRY 5
  

Призраки в Коннектикуте / The Haunting in Connecticut (Питер Корнвэлл / Peter Cornwell) [2009, ужасы, триллер, драма, BDRip 720p от potroks] DUB Лицензия pb.wtf

Призраки в Коннектикуте через торрент pb.wtf

Размер: 6.37 GB | Добавлен: 5 лет 2 мес. назад | Торрент скачан:187 раз
Скачать  

16-08-2015 09:15 Призраки в Коннектикуте Скачать торрент  

Призраки в Коннектикуте / The Haunting in Connecticut
«Некоторые вещи необъяснимы»
Год выпуска: 2009
Страна: США, Канада / Lionsgate...
Жанр: ужасы, триллер, драма
Продолжительность: 01:42:49
Перевод#1: Дубляж [BD RUS]
Перевод#2: Авторский (одноголосый) [Ю.Немахов]
Субтитры: русские, английские (Full), английские (SDH)
Навигация по главам: есть
Режиссер: Питер Корнвэлл / Peter Cornwell
В ролях:

Кайл Галлнер (Matt Campbell), Вирджиния Мэдсен (Sara Campbell), Аманда Крю (Wendy), Элиас Котеас (Reverend Popescu), Мартин Донован (Peter Campbell), Софи Найт (Mary), Тай Вуд (Billy Campbell), Эрик Дж. Берг (Jonah), Джон Блютнер (Ramsey Aickman), Д.В. Браун (Dr. Brooks), Джон Б. Лоу (Mr. Sinclair), Адриана О’Нил (Chemo Nurse)
Описание: История о семье, вынужденной переехать ближе к клинике, где их сын лечится от рака. И без того испытывающие финансовое и моральное напряжение, они обнаруживают, что их недавно отреставрированный дом хранит мрачные тайны. После нескольких столкновений со сверхъестественными силами в доме, семья обращается за помощью к священнику...

Качество: BDRip 720p
Формат: MKV
Видео кодек: AVC
Аудио кодек: AC3
Видео: AVC, 1280x544 (2.35:1), 6955 kbps, 23,976 fps, 0,417 bit/pixel
Аудио №1: AC3 / 5.1 / 48 kHz / 640 kbps / 16 bit | DUB - Blu-Ray RUS
Аудио №2: AC3 / 5.1 / 48 kHz / 640 kbps / 16 bit | AVO - Ю.Немахов
Аудио №3: AC3 / 5.1 / 48 kHz / 640 kbps / 16 bit | ENG
Релиз группы:
Автор рипа: potroks

Код:

General
Unique ID                                : 235924339665966957549280010166786418182 (0xB17D600270E71CCEA9D6479980616606)
Complete name                            : N:\Ужасы\Prizraki.v.Konnektikute.2009.TRIPLE.BDRip.720p.-HELLYWOOD.mkv
Format                                   : Matroska
Format version                           : Version 4 / Version 2
File size                                : 6.37 GiB
Duration                                 : 1h 42mn
Overall bit rate                         : 8 868 Kbps
Movie name                               : The Haunting in Connecticut (2009) - HELLYWOOD
Encoded date                             : UTC 2015-08-14 03:41:56
Writing application                      : mkvmerge v5.9.0 ('On The Loose') built on Dec 15 2012 16:39:58
Writing library                          : libebml v1.3.0 + libmatroska v1.4.0

Video
ID                                       : 1
Format                                   : AVC
Format/Info                              : Advanced Video Codec
Format profile                           : High@L4.1
Format settings, CABAC                   : Yes
Format settings, ReFrames                : 8 frames
Codec ID                                 : V_MPEG4/ISO/AVC
Duration                                 : 1h 42mn
Bit rate                                 : 6 955 Kbps
Width                                    : 1 280 pixels
Height                                   : 544 pixels
Display aspect ratio                     : 2.35:1
Frame rate mode                          : Variable
Frame rate                               : 23.976 fps
Color space                              : YUV
Chroma subsampling                       : 4:2:0
Bit depth                                : 8 bits
Scan type                                : Progressive
Bits/(Pixel*Frame)                       : 0.417
Stream size                              : 4.86 GiB (76%)
Title                                    : potroks
Writing library                          : x264 core 128 r2216M 198a7ea
Encoding settings                        : cabac=1 / ref=9 / deblock=1:-3:-3 / analyse=0x3:0x133 / me=umh / subme=9 / psy=1 / psy_rd=0.98:0.00 / mixed_ref=1 / me_range=56 / chroma_me=1 / trellis=1 / 8x8dct=1 / cqm=0 / deadzone=21,11 / fast_pskip=0 / chroma_qp_offset=-2 / threads=11 / lookahead_threads=1 / sliced_threads=0 / nr=0 / decimate=1 / interlaced=0 / bluray_compat=0 / constrained_intra=0 / bframes=10 / b_pyramid=1 / b_adapt=2 / b_bias=0 / direct=3 / weightb=1 / open_gop=0 / weightp=2 / keyint=250 / keyint_min=23 / scenecut=40 / intra_refresh=0 / rc_lookahead=40 / rc=2pass / mbtree=0 / bitrate=6955 / ratetol=1.0 / qcomp=0.70 / qpmin=0 / qpmax=69 / qpstep=4 / cplxblur=20.0 / qblur=0.5 / vbv_maxrate=62500 / vbv_bufsize=62500 / nal_hrd=none / ip_ratio=1.40 / pb_ratio=1.30 / aq=1:0.85
Language                                 : English
Default                                  : Yes
Forced                                   : No

Audio #1
ID                                       : 2
Format                                   : AC-3
Format/Info                              : Audio Coding 3
Mode extension                           : CM (complete main)
Codec ID                                 : A_AC3
Duration                                 : 1h 42mn
Bit rate mode                            : Constant
Bit rate                                 : 640 Kbps
Channel(s)                               : 6 channels
Channel positions                        : Front: L C R, Side: L R, LFE
Sampling rate                            : 48.0 KHz
Bit depth                                : 16 bits
Compression mode                         : Lossy
Delay relative to video                  : 27ms
Stream size                              : 471 MiB (7%)
Title                                    : Dub | DD 5.1 @ 640 kbps - Blu-Ray RUS
Language                                 : Russian
Default                                  : Yes
Forced                                   : No

Audio #2
ID                                       : 3
Format                                   : AC-3
Format/Info                              : Audio Coding 3
Mode extension                           : CM (complete main)
Codec ID                                 : A_AC3
Duration                                 : 1h 42mn
Bit rate mode                            : Constant
Bit rate                                 : 640 Kbps
Channel(s)                               : 6 channels
Channel positions                        : Front: L C R, Side: L R, LFE
Sampling rate                            : 48.0 KHz
Bit depth                                : 16 bits
Compression mode                         : Lossy
Delay relative to video                  : 27ms
Stream size                              : 471 MiB (7%)
Title                                    : AVO | DD 5.1 @ 640 kbps - Y.Nemahov
Language                                 : Russian
Default                                  : No
Forced                                   : No

Audio #3
ID                                       : 4
Format                                   : AC-3
Format/Info                              : Audio Coding 3
Mode extension                           : CM (complete main)
Codec ID                                 : A_AC3
Duration                                 : 1h 42mn
Bit rate mode                            : Constant
Bit rate                                 : 640 Kbps
Channel(s)                               : 6 channels
Channel positions                        : Front: L C R, Side: L R, LFE
Sampling rate                            : 48.0 KHz
Bit depth                                : 16 bits
Compression mode                         : Lossy
Delay relative to video                  : 27ms
Stream size                              : 471 MiB (7%)
Title                                    : Original | DD 5.1 @ 640 kbps
Language                                 : English
Default                                  : No
Forced                                   : No

Text #1
ID                                       : 5
Format                                   : UTF-8
Codec ID                                 : S_TEXT/UTF8
Codec ID/Info                            : UTF-8 Plain Text
Language                                 : Russian
Default                                  : No
Forced                                   : No

Text #2
ID                                       : 6
Format                                   : UTF-8
Codec ID                                 : S_TEXT/UTF8
Codec ID/Info                            : UTF-8 Plain Text
Title                                    : Full
Language                                 : English
Default                                  : No
Forced                                   : No

Text #3
ID                                       : 7
Format                                   : UTF-8
Codec ID                                 : S_TEXT/UTF8
Codec ID/Info                            : UTF-8 Plain Text
Title                                    : SDH
Language                                 : English
Default                                  : No
Forced                                   : No

Menu
00:00:00.000                             : en:(01)00:00:00:000
00:06:46.531                             : en:(02)00:06:46:531
00:11:49.208                             : en:(03)00:11:49:208
00:17:48.817                             : en:(04)00:17:48:817
00:24:06.611                             : en:(05)00:24:06:611
00:32:26.444                             : en:(06)00:32:26:444
00:35:28.793                             : en:(07)00:35:28:793
00:40:51.739                             : en:(08)00:40:51:739
00:45:20.300                             : en:(09)00:45:20:300
00:51:50.524                             : en:(10)00:51:50:524
00:56:43.817                             : en:(11)00:56:43:817
01:02:03.594                             : en:(12)01:02:03:594
01:07:01.642                             : en:(13)01:07:01:642
01:15:12.215                             : en:(14)01:15:12:215
01:20:00.712                             : en:(15)01:20:00:712
01:27:16.104                             : en:(16)01:27:16:104
01:42:50.539                             : en:(17)01:42:50:539

pb.wtf



Скачать Призраки в Коннектикуте через торрент http://i69.fastpic.ru/big/2015/0816/a5/76fba28d6273d48ae58cb8c7d74a62a5.png Скачать фильм Призраки в Коннектикуте через торрент бесплантно в хорошем качестве Описание: История о семье, вынужденной переехать ближе к клинике, где их сын лечится от рака. И без того испытывающие финансовое и ... 10 10 7
Info! Золотая раздача, скачанное не засчитывается.
Торрент: Зарегистрирован [2015-08-16 09:15] · скачан: 187 раз
Статус: √ проверено
Размер: 6.37 GB
Как cкачать? Как скачать Призраки в Коннектикуте через торрент | qTorrent

% Раздел Тема Автор DL S | L
Фильмы 2009 [ 700 MB ] Призраки в Коннектикуте / Haunting in Connecticut The [2009 ... HDRip лицензия] DUB M@RCU$ Скачать
1 | 0

28-11-2019 20:33  

Отключить всю рекламу на сайте

16-08-2015 11:48 Призраки в Коннектикуте Скачать торрент  

Фильм супер Один из лучших ужасовpb.wtf



    Дорогой пользователь! Огромная просьба, поблагодарите релизера, оцените раздачу и оставьте свои комментарий, если Вы скачали Призраки в Коннектикуте через торрент бесплатно! Внесите свою лепту в развитие PiratBit!
    Комментировать посты могут только пользователи прошедшие не сложную регистрацию
    Показать сообщения:    

    Призраки в Коннектикуте через торрент
    Скачать бесплатно Призраки в Коннектикуте
    Призраки в Коннектикуте скачать торрент
    Призраки в Коннектикуте смотреть онлайн
    Cкачать фильм Призраки в Коннектикуте бесплатно
    Призраки в Коннектикуте скачать торрент в хорошем качестве
    Призраки в Коннектикуте смотреть онлайн бесплатно в хорошем качестве


    Вы не можете начинать темы
    Вы не можете отвечать на сообщения
    Вы не можете редактировать свои сообщения
    Вы не можете удалять свои сообщения
    Вы не можете голосовать в опросах
    Вы не можете прикреплять файлы к сообщениям
    Вы можете скачивать файлы