2 сезон

iTunes

MVO

1

2 сезон

iTunes

iTunes

1 сезон

RePack

30

Ultimate

ВАЖНО

ИГРА 18+

pack

RePack

MK11
pack

Легкие деньги

RePack

jed

RePack

fifa19

RePack

RDR2

RePack

NEED FOR SPEED™ PAYBACK

4 сезон

9 сезон

Бесстыжие 9 сезон

Все сериалы

все сериалы на PB.wtf

RePack

FAR CRY 5

Anonymous, доброй ночи, мы не успеваем собрать деньги на оплату серверов за декабрь и январь, помогите нам пожалуйста в это трудное время. В качестве благодарности мы отключим Вам всю рекламу на сайте (укажите свой ник в строку Ваше имя)!

×
  
Magnet ссылка

Третья персона / Third Person (Пол Хаггис ) [2013, драма, мелодрама, HDRip, Профессиональный многоголосый [Лицензия] pb.wtf

Третья персона через торрент pb.wtf

Размер: 1.46 GB | Добавлен: 5 лет 5 мес. назад | Торрент скачан:387 раз
Скачать  

12-03-2015 20:14 Третья персона Скачать торрент  


Третья персона / Third Person
«Life can change at the turn of a page»

ИНФОРМАЦИЯ:
Год выпуска:2013
Страна: Великобритания, США, Германия, Бельгия, Франция
Жанр: драма, мелодрама
Продолжительность: 02:16:45
Перевод: Профессиональный многоголосый [Лицензия]
Режиссер: Пол Хаггис

В Ролях:


Лиам Нисон (Michael), Мила Кунис (Julia), Эдриан Броуди (Scott), Оливия Уайлд (Anna), Джеймс Франко (Rick), Моран Атиас (Monika), Мария Белло (Theresa), Ким Бейсингер (Elaine), Микеле Мелега (Giorgio), Джанни Франко (Taxi Driver (Rome)), Мариус Бизо (Taxi Driver (Paris)), Кэти Луиз Саундерс (Gina)

ОПИСАНИЕ:
Фильм состоит из трех историй о любви, действие которых развернется в трех разных городах: Нью-Йорке, Париже и Риме.

  • Мировая премьера:9 сентября 2013

    ТЕХ.ДАННЫЕ:
    Качество: HDRip
    Формат: AVI
    Видео кодек: XviD
    Аудио кодек: AC3
    Видео: XviD, 720x304 (2.35:1), 1071 kbps, 23,976 fps, 0,193 bpp
    Аудио: AC3 / 5.1 / 48 kHz / 448 kbps / 16 bit



    Код:

    General
    Complete name                            : D:\Торенты\Tretya.Persona.2013.D.HDRip.1490MB.ELEKTRI4KA.uniongang.tv.avi
    Format                                   : AVI
    Format/Info                              : Audio Video Interleave
    File size                                : 1.46 GiB
    Duration                                 : 2h 16mn
    Overall bit rate                         : 1 528 Kbps
    Movie name                               : Tretya.Persona.2013.D.HDRip.1490MB.ELEKTRI4KA.uniongang.tv
    Director                                 : 3imeMachi9e
    Writing application                      : VirtualDubMod 1.5.10.3 | www.virtualdub-fr.org || (build 2550/release)
    Copyright                                : UNIONGANG&RUSTORRENTS

    Video
    ID                                       : 0
    Format                                   : MPEG-4 Visual
    Format profile                           : Advanced Simple@L5
    Format settings, BVOP                    : 2
    Format settings, QPel                    : No
    Format settings, GMC                     : No warppoints
    Format settings, Matrix                  : Default (MPEG)
    Codec ID                                 : XVID
    Codec ID/Hint                            : XviD
    Duration                                 : 2h 16mn
    Bit rate                                 :  1071 Kbps
    Width                                    : 720 pixels
    Height                                   : 304 pixels
    Display aspect ratio                     : 2.35:1
    Frame rate                               : 23.976 fps
    Color space                              : YUV
    Chroma subsampling                       : 4:2:0
    Bit depth                                : 8 bits
    Scan type                                : Progressive
    Compression mode                         : Lossy
    Bits/(Pixel*Frame)                       : 0.193
    Stream size                              : 988 MiB (66%)
    Writing library                          : XviD 73

    Audio
    ID                                       : 1
    Format                                   : AC-3
    Format/Info                              : Audio Coding 3
    Mode extension                           : CM (complete main)
    Codec ID                                 : 2000
    Duration                                 : 2h 16mn
    Bit rate mode                            : Constant
    Bit rate                                 : 448 Kbps
    Channel(s)                               : 6 channels
    Channel positions                        : Front: L C R, Side: L R, LFE
    Sampling rate                            : 48.0 KHz
    Bit depth                                : 16 bits
    Compression mode                         : Lossy
    Stream size                              : 438 MiB (29%)
    Alignment                                : Split accross interleaves

    Скриншоты:


    © Оформление by Ворон
    pb.wtf



  • Скачать Третья персона через торрент http://pic.kartinco.top/images/6/ordi9.jpg Скачать фильм Третья персона через торрент бесплантно в хорошем качестве Е:Фильм состоит из трех историй о любви, действие которых развернется в трех разных городах: Нью-Йорке, Париже и Риме. Мировая премьера:9 ... 8.8 10 32
    Торрент: Зарегистрирован [2015-08-16 11:58] · скачан: 387 раз
    Статус: √ проверено
    Размер: 1.46 GB
    Как cкачать? Как скачать Третья персона через торрент | UTorrent

    % Раздел Тема Автор DL S | L
    Фильмы [HD 720p, 1080p] (Хороший звук DUB, MVO) [ 6.47 GB ] Третья персона / Third Person [2013 BDRip 720p многоголосый [] Ворон Скачать
    1 | 0
    Фильмы 2013 [DVDrip, WEB-DLRip, HDrip] [ 2.57 GB ] Третья персона / Third Person [2013 BDRip многоголосый [] Ворон Скачать
    1 | 0

    28-11-2019 20:33  

    Отключить всю рекламу на сайте

    17-08-2015 02:16 Третья персона Скачать торрент  

    любовь-морковь.. кто ваще такое смотрит? бабищи одинокие? хотя актеры зачетнейшиеpb.wtf



      Дорогой пользователь! Огромная просьба, поблагодарите релизера, оцените раздачу и оставьте свои комментарий, если Вы скачали Третья персона через торрент бесплатно! Внесите свою лепту в развитие PiratBit!
      Комментировать посты могут только пользователи прошедшие не сложную регистрацию
      Показать сообщения:    

      Третья персона через торрент
      Скачать бесплатно Третья персона
      Третья персона скачать торрент
      Третья персона смотреть онлайн
      Cкачать фильм Третья персона бесплатно
      Третья персона скачать торрент в хорошем качестве
      Третья персона смотреть онлайн бесплатно в хорошем качестве


      Вы не можете начинать темы
      Вы не можете отвечать на сообщения
      Вы не можете редактировать свои сообщения
      Вы не можете удалять свои сообщения
      Вы не можете голосовать в опросах
      Вы не можете прикреплять файлы к сообщениям
      Вы можете скачивать файлы