Anonymous, добрый вечер, присоединяйтесь к нам в Telegram!, здесь всегда актуальный адрес сайта, оперативная поддержка и многое другое!

>

5.6

iTunes

7.4

iTunes

7.9

MVO

1

7.7

1 сезон

6.8

iTunes

7.3

1 сезон

13

6.7

1 сезон

8.3

RePack

30

PREMIUM

pack

9.9

Лицензия

ВАЖНО

ИГРА 18+

pack

7.3

RePack

MK11

7.7

RePack

jed

7.8

RePack

fifa19

8.5

RePack

RDR2

RePack

NEED FOR SPEED™ PAYBACK

4 сезон

9 сезон

Бесстыжие 9 сезон

Все сериалы

все сериалы на PB.wtf

RePack

FAR CRY 5

Anonymous, добрый вечер, мы катастрофически не успеваем собрать деньги на оплату серверов, помогите нам пожалуйста 5,10,15р., для нас важна любая помощь . В качестве благодарности мы отключим Вам всю рекламу на сайте (укажите свой ник в строку Ваше имя)!

×
  
Magnet ссылка

Падение Берлина (Михаил Чиаурели) [1949, СССР, драма, военный, DVDRip от AVP Studio] pb.wtf

Падение Берлина через торрент pb.wtf

Размер: 1.46 GB | Добавлен: 6 лет 2 мес. назад | Торрент скачан:25 раз
Смотреть онлайн Падение Берлина | Скачать    Ребята, помогите собрать деньги на оплату серверов!!!

17-08-2015 13:23 Падение Берлина Скачать торрент  

Падение Берлина
Страна: СССР
Производство: Мосфильм

Жанр: драма, военный
Год выпуска: 1949
Продолжительность: 02:24:42 (01:10:28 + 01:14:14)

Перевод: Не требуется
Cубтитры: нет
Оригинальная аудиодорожка: русский

Режиссер: Михаил Чиаурели

В ролях:
Михаил Геловани, Максим Штраух, Алексей Грибов, Николай Рыжов, Гавриил Белов, Рубен Симонов, Г. Пасечник, Александр Ханов, Владимир Любимов, Сергей Блинников, Борис Ливанов, Федор Блажевич, Константин Барташевич, Андрей Абрикосов, Борис Тенин, Михаил Сидоркин, А. Поярков, Борис Андреев, Марина Ковалёва, Юрий Тимошенко, Верико Анджапаридзе, Николай Боголюбов, Дмитрий Павлов, А. Уразалиев, Олег (Осип) Фрелих, Виктор Станицын, Владимир Савельев (II), Мария Новакова, Ян Верих, Н. Петрункин, Владимир Кенигсон, Николай Плотников, Владимир Покровский, В. Рэнин, К. Родэн, К. Гомола, Софья Гиацинтова, Дмитрий Дубов, Георгий Татишвили...
Полный список актёров

Описание:
Легендарная киноэпопея о событиях Великой Отечественной войны, вышедшая на экраны во времена расцвета культа личности Сталина. Сценарий, состав актёров и весь ход съёмок фильма лично контролировались И. В. Сталиным.

Источник: DVD9 R5
Качество видео: DVDRip
Формат видео: AVI
Видео кодек: XviD
Аудио кодек: MP3
Видео: 688x512 (4:3), 25 fps, XviD ~ 1363 kbps avg, 0.155 bit/pixel
Аудио: 48 kHz, MP3 2.0, 128 kbps

Раздача от:
Общее
Полное имя : Padenie.Berlina.1934.DVDRip-1,46_[New-team]_by_AVP_Studio\2 серия.avi
Формат : AVI
Формат/Информация : Audio Video Interleave
Размер файла : 796 Мбайт
Продолжительность : 1 ч. 14 м.
Общий поток : 1501 Кбит/сек
Программа кодирования : VirtualDubModRus 1.5.10.2 (build 2542/release)
Библиотека кодирования : VirtualDubMod build 2542/release

Видео
Идентификатор : 0
Формат : MPEG-4 Visual
Профиль формата : Advanced Simple@L5
Параметр BVOP формата : 1
Параметр QPel формата : Нет
Параметр GMC формата : Без точки перехода
Параметр матрицы формата : Выборочная
Идентификатор кодека : XVID
Идентификатор кодека/Подсказка : XviD
Продолжительность : 1 ч. 14 м.
Битрейт : 1363 Кбит/сек
Ширина : 688 пикселей
Высота : 512 пикселей
Соотношение сторон : 4:3
Частота кадров : 25,000 кадров/сек
Цветовое пространство : YUV
Субдискретизация насыщенности : 4:2:0
Битовая глубина : 8 бит
Тип развёртки : Прогрессивная
Метод сжатия : С потерями
Бит/(Пиксели*Кадры) : 0.155
Размер потока : 723 Мбайт (91%)
Библиотека кодирования : XviD 73

Аудио
Идентификатор : 1
Формат : MPEG Audio
Версия формата : Version 1
Профиль формата : Layer 3
Идентификатор кодека : 55
Идентификатор кодека/Подсказка : MP3
Продолжительность : 1 ч. 14 м.
Вид битрейта : Постоянный
Битрейт : 128 Кбит/сек
Каналы : 2 канала
Частота : 48,0 КГц
Метод сжатия : С потерями
Размер потока : 67,9 Мбайт (9%)
Выравнивание : Соединение по промежуткам
Продолжительность промежутка : 40 мс. (1,00 видеокадр)
Время предзагрузки промежутка : 504 мс
pb.wtf



Скачать Падение Берлина через торрент http://s017.radikal.ru/i406/1508/27/65c33df0c36f.png Скачать, смотреть онлайн Падение Берлина бесплантно в хорошем качестве Описание:Легендарная киноэпопея о событиях Великой Отечественной войны, вышедшая на экраны во времена расцвета культа личности Сталина. ... 10 10 2
Торрент: Зарегистрирован [2015-08-17 13:23] · скачан: 25 раз
Статус: √ проверено
Размер: 1.46 GB
Как cкачать? Как скачать Падение Берлина через торрент | UTorrent

% Раздел Тема Автор DL S | L
Кино СССР [ 2.18 GB ] Падение Берлина [1949 СССР военный DVDRip-AVC от AVP Studio] AVP Studio Скачать
1 | 0
Кино СССР [ 2.18 GB ] Падение Берлина [1949 СССР военный DVDRip от AVP Studio] AVP Studio Скачать
1 | 0

28-11-2019 20:33  

Отключить всю рекламу на сайте

    Дорогой пользователь! Огромная просьба, поблагодарите релизера, оцените раздачу и оставьте свои комментарий, если Вы скачали Падение Берлина через торрент бесплатно!
    Комментировать посты могут только пользователи прошедшие не сложную регистрацию
    Показать сообщения:    

    Падение Берлина через торрент
    Скачать бесплатно Падение Берлина
    Падение Берлина скачать торрент
    Падение Берлина смотреть онлайн
    Cкачать фильм Падение Берлина бесплатно
    Падение Берлина скачать торрент в хорошем качестве
    Падение Берлина смотреть онлайн бесплатно в хорошем качестве


    Вы не можете начинать темы
    Вы не можете отвечать на сообщения
    Вы не можете редактировать свои сообщения
    Вы не можете удалять свои сообщения
    Вы не можете голосовать в опросах
    Вы не можете прикреплять файлы к сообщениям
    Вы можете скачивать файлы