новый адрес пиратбит piratbit
Мега распродажа FORZA HORIZON 4 ULTIMATE+ВСЕ DLC+ОНЛАЙН всего за 499р. 349 руб. (супер цена). Внимание количество ограничено!!!

iTunes

1+1

iTunes

мы

iTunes

1

iTunes

Чернобыль

iTunes

Ральф против интернета

Лицензия

ПШазам

Лицензия

Игра престолов

Лицензия

30
pack

ВАЖНО

!!Акция!!

Alien_RageХит недели

RePack

Resident Evil 21

ИГРА 18+

pack

RePack

Metro:Exodus

!!Акция!!

Alien_Rage

RePack

fifa19

RePack

Assassins Creed: Odyssey

RePack

NEED FOR SPEED™ PAYBACK

3 сезон

9 сезон

Бесстыжие 9 сезон

Все сериалы

все сериалы на PB.wtf

RePack

FAR CRY 5
Ребята, катастрофически не хватает 1900р. для оплаты серверов за Октябрь (всвязи с блокировками трафик упал в 3 раза), 1-2р., выручайте.
  

Падение Берлина (Михаил Чиаурели) [1949, СССР, драма, военный, DVDRip-AVC от AVP Studio] pb.wtf

Падение Берлина через торрент pb.wtf

Размер: 2.18 GB | Добавлен: 4 года 2 мес. назад | Торрент скачан:30 раз
Скачать  

18-08-2015 06:02 Падение Берлина Скачать торрент  

Падение Берлина
Страна: СССР
Производство: Мосфильм

Жанр: драма, военный
Год выпуска: 1949
Продолжительность: 02:24:42 (01:10:28 + 01:14:14)

Перевод: Не требуется
Cубтитры: нет
Оригинальная аудиодорожка: русский

Режиссер: Михаил Чиаурели

В ролях:
Михаил Геловани, Максим Штраух, Алексей Грибов, Николай Рыжов, Гавриил Белов, Рубен Симонов, Г. Пасечник, Александр Ханов, Владимир Любимов, Сергей Блинников, Борис Ливанов, Федор Блажевич, Константин Барташевич, Андрей Абрикосов, Борис Тенин, Михаил Сидоркин, А. Поярков, Борис Андреев, Марина Ковалёва, Юрий Тимошенко, Верико Анджапаридзе, Николай Боголюбов, Дмитрий Павлов, А. Уразалиев, Олег (Осип) Фрелих, Виктор Станицын, Владимир Савельев (II), Мария Новакова, Ян Верих, Н. Петрункин, Владимир Кенигсон, Николай Плотников, Владимир Покровский, В. Рэнин, К. Родэн, К. Гомола, Софья Гиацинтова, Дмитрий Дубов, Георгий Татишвили...
Полный список актёров

Описание:
Легендарная киноэпопея о событиях Великой Отечественной войны, вышедшая на экраны во времена расцвета культа личности Сталина. Сценарий, состав актёров и весь ход съёмок фильма лично контролировались И. В. Сталиным.

Источник: DVD9 R5
Качество видео: DVDRip-AVC
Формат видео: MKV
Видео кодек: H.264
Аудио кодек: AC3
Видео: 688->762x572 (4:3), 25 fps, H264 ~ 1961 kbps avg, 0.199 bit/pixel
Аудио: 48 kHz, Dolby Digital AC3 2.0, 192 kbps

Раздача от:
Общее
Полное имя : Padenie.Berlina.1934.DVDRip-AVC_[New-team]_by_AVP_Studio\2 серия.mkv
Формат : Matroska
Версия формата : Version 2
Размер файла : 1,12 Гбайт
Продолжительность : 1 ч. 14 м.
Общий поток : 2155 Кбит/сек
Дата кодирования : UTC 2015-08-17 18:06:46
Программа кодирования : mkvmerge v6.1.0 ('Old Devil') built on Mar 4 2013 09:10:42
Библиотека кодирования : libebml v1.3.0 + libmatroska v1.4.0

Видео
Идентификатор : 1
Формат : AVC
Формат/Информация : Advanced Video Codec
Профиль формата : High@L4.1
Параметр CABAC формата : Да
Параметр ReFrames формата : 8 кадров
Идентификатор кодека : V_MPEG4/ISO/AVC
Продолжительность : 1 ч. 14 м.
Битрейт : 1961 Кбит/сек
Ширина : 688 пикселей
Высота : 572 пикселя
Соотношение сторон : 4:3
Режим частоты кадров : Постоянный
Частота кадров : 25,000 кадров/сек
Цветовое пространство : YUV
Субдискретизация насыщенности : 4:2:0
Битовая глубина : 8 бит
Тип развёртки : Прогрессивная
Бит/(Пиксели*Кадры) : 0.199
Размер потока : 1020 Мбайт (89%)
Библиотека кодирования : x264 core 130 r2273 b3065e6
Настройки программы : cabac=1 / ref=8 / deblock=1:-2:-1 / analyse=0x3:0x113 / me=umh / subme=10 / psy=1 / psy_rd=1.00:0.05 / mixed_ref=1 / me_range=32 / chroma_me=1 / trellis=2 / 8x8dct=1 / cqm=0 / deadzone=21,11 / fast_pskip=0 / chroma_qp_offset=-3 / threads=6 / lookahead_threads=1 / sliced_threads=0 / nr=0 / decimate=0 / interlaced=0 / bluray_compat=0 / constrained_intra=0 / bframes=8 / b_pyramid=2 / b_adapt=2 / b_bias=0 / direct=3 / weightb=1 / open_gop=0 / weightp=2 / keyint=250 / keyint_min=25 / scenecut=40 / intra_refresh=0 / rc=2pass / mbtree=0 / bitrate=1961 / ratetol=1.0 / qcomp=0.60 / qpmin=0 / qpmax=69 / qpstep=4 / cplxblur=20.0 / qblur=0.5 / ip_ratio=1.40 / pb_ratio=1.30 / aq=1:1.00
Default : Да
Forced : Нет

Аудио
Идентификатор : 2
Формат : AC-3
Формат/Информация : Audio Coding 3
Расширение режима : CM (complete main)
Параметр Endianness формата : Big
Идентификатор кодека : A_AC3
Продолжительность : 1 ч. 14 м.
Вид битрейта : Постоянный
Битрейт : 192 Кбит/сек
Каналы : 2 канала
Расположение каналов : Front: L R
Частота : 48,0 КГц
Метод сжатия : С потерями
Размер потока : 102 Мбайт (9%)
Default : Да
Forced : Нет
pb.wtf



Скачать Падение Берлина через торрент http://s017.radikal.ru/i406/1508/27/65c33df0c36f.png Скачать фильм Падение Берлина через торрент бесплантно в хорошем качестве Описание:Легендарная киноэпопея о событиях Великой Отечественной войны, вышедшая на экраны во времена расцвета культа личности Сталина. ... 10 10 3
Info! Золотая раздача, скачанное не засчитывается.
Торрент: Зарегистрирован [2015-08-18 06:02] · скачан: 30 раз
Статус: √ проверено
Размер: 2.18 GB
Как cкачать? Как скачать Падение Берлина через торрент | qTorrent

% Раздел Тема Автор DL S | L
Кино СССР [ 1.46 GB ] Падение Берлина [1949 СССР военный DVDRip от AVP Studio] AVP Studio Скачать
1 | 0
Кино СССР [ 2.18 GB ] Падение Берлина [1949 СССР военный DVDRip от AVP Studio] AVP Studio Скачать
1 | 0


>> Регистрируемся здесь <<






Отзывы и комментарии о схеме читаем и пишем здесь: ---> Отзывы и комментарии о схеме

Новые благодарочки в телеграм довольных пользователей:
скриншот   скриншот   скриншот   скриншот   скриншот
    Дорогой пользователь! Огромная просьба, поблагодарите релизера, оцените раздачу и оставьте свои комментарий, если Вы скачали Падение Берлина через торрент бесплатно! Внесите свою лепту в развитие PiratBit!
    Комментировать посты могут только пользователи прошедшие не сложную регистрацию
    Показать сообщения:    

    Падение Берлина через торрент
    Скачать бесплатно Падение Берлина
    Падение Берлина скачать торрент
    Падение Берлина смотреть онлайн
    Cкачать фильм Падение Берлина бесплатно
    Падение Берлина скачать торрент в хорошем качестве
    Падение Берлина смотреть онлайн бесплатно в хорошем качестве


    Вы не можете начинать темы
    Вы не можете отвечать на сообщения
    Вы не можете редактировать свои сообщения
    Вы не можете удалять свои сообщения
    Вы не можете голосовать в опросах
    Вы не можете прикреплять файлы к сообщениям
    Вы можете скачивать файлы