2 сезон

iTunes

1 сезон

1

iTunes

iTunes

iTunes

1 сезон

RePack

30

ИГРА 18+

pack

ВАЖНО

!!Акция!!

Alien_RageХит недели

RePack

MK11
pack

Забери бонус

RePack

jed

!!Акция!!

Alien_Rage

RePack

fifa19

RePack

Assassins Creed: Odyssey

RePack

NEED FOR SPEED™ PAYBACK

4 сезон

9 сезон

Бесстыжие 9 сезон

Все сериалы

все сериалы на PB.wtf

RePack

FAR CRY 5
  

Опасный метод (Дэвид Кроненберг) [2011 г., триллер, драма, биография, BDRip 720p, DUB] pb.wtf

Опасный метод через торрент pb.wtf

Размер: 4.26 GB | Добавлен: 5 лет 2 мес. назад | Торрент скачан:190 раз
Скачать  

10-04-2012 21:58 Опасный метод Скачать торрент  

Опасный метод

Год выпуска: 2011
Страна: Германия
Жанр: триллер, драма, биография
Продолжительность: 01:39:14
Перевод: Дубляж (Лицензия)
  • Режиссер: Дэвид Кроненберг
  • Продюссер: Джереми Томас, Тиана Александра, Питер Уотсон
  • Сценарий: Кристофер Хэмптон, Джон Керр

  • Бюджет: €15 000 000

  • Лицам до 17 лет обязательно присутствие взрослого

В ролях: Кира Найтли, Вигго Мортенсен, Майкл Фассбендер, Венсан Кассель, Сара Гадон, Андре Хеннике, Арндт Шверинг-Сонри, Миньон Реме, Мареике Карьер, Франциска Арндт, Ирина Киреева, Вадим Андреев, Владимир Зайцев, Леонид Белозорович, Наталья Грачева

Описание: Сюжет закручен вокруг персон основателей психоанализа Карла Густава Юнга и Зигмунда Фрейда и их сложных взаимоотношений с умной и красивой пациенткой Сабиной Шпильрейн.
  • Качество: BDRip (720p)
  • Формат: MKV
  • Видео кодек: AVC
  • Аудио кодек: AC3
  • Видео: AVC, 1280x692 (1.850), 24.000 fps, 4 996 Kbps (0.235 bit/pixel)
  • Аудио#1: AC-3, 48.0 KHz, 6 ch, 448 Kbps, CBR (Russian)
  • Аудио#2: AC-3, 48.0 KHz, 6 ch, 640 Kbps, CBR (English)
  • Субтитры: Russian (Voronine), English

Скриншоты

скриншот   скриншот  

Код:

Общее
Уникальный идентификатор                 : 214667863458515159793000062704230620169 (0xA17F86D16F9846A08691FB8BF4885C09)
Полное имя                               : D:\Torrents\Опасный метод BDRip 720p.mkv
Формат                                   : Matroska
Версия формата                           : Version 2
Размер файла                             : 4,30 Гбайт
Продолжительность                        : 1 ч. 39 м.
Общий поток                              : 6207 Кбит/сек
Название фильма                          : R.G. HD-Films
Дата кодирования                         : UTC 2012-04-10 21:48:57
Программа кодирования                    : mkvmerge v5.0.1 ('Es ist Sommer') built on Oct  9 2011 11:55:43
Библиотека кодирования                   : libebml v1.2.2 + libmatroska v1.3.0

Видео
Идентификатор                            : 1
Формат                                   : AVC
Формат/Информация                        : Advanced Video Codec
Профиль формата                          : High@L4.1
Параметр CABAC формата                   : Да
Параметр ReFrames формата                : 9 кадров
Идентификатор кодека                     : V_MPEG4/ISO/AVC
Продолжительность                        : 1 ч. 39 м.
Битрейт                                  : 4996 Кбит/сек
Ширина                                   : 1280 пикселей
Высота                                   : 692 пикселя
Соотношение сторон                       : 1,850
Частота кадров                           : 24,000 кадра/сек
Цветовое пространство                    : YUV
Субдискретизация насыщенности            : 4:2:0
Битовая глубина                          : 8 бит
Тип развёртки                            : Прогрессивная
Бит/(Пиксели*Кадры)                      : 0.235
Размер потока                            : 3,46 Гбайт (80%)
Библиотека кодирования                   : x264 core 120 r2146 bcd41db
Настройки программы                      : cabac=1 / ref=9 / deblock=1:-3:-3 / analyse=0x3:0x133 / me=umh / subme=9 / psy=1 / psy_rd=1.20:0.15 / mixed_ref=1 / me_range=16 / chroma_me=1 / trellis=2 / 8x8dct=1 / cqm=0 / deadzone=21,11 / fast_pskip=0 / chroma_qp_offset=-3 / threads=12 / sliced_threads=0 / nr=0 / decimate=0 / interlaced=0 / bluray_compat=0 / constrained_intra=0 / bframes=8 / b_pyramid=2 / b_adapt=2 / b_bias=0 / direct=3 / weightb=1 / open_gop=0 / weightp=2 / keyint=250 / keyint_min=24 / scenecut=40 / intra_refresh=0 / rc=crf / mbtree=0 / crf=17.3 / qcomp=0.60 / qpmin=10 / qpmax=51 / qpstep=4 / ip_ratio=1.40 / pb_ratio=1.30 / aq=1:0.70
Язык                                     : English
Default                                  : Да
Forced                                   : Нет

Аудио #1
Идентификатор                            : 2
Формат                                   : AC-3
Формат/Информация                        : Audio Coding 3
Расширение режима                        : CM (complete main)
Параметр Endianness формата              : Big
Идентификатор кодека                     : A_AC3
Продолжительность                        : 1 ч. 39 м.
Вид битрейта                             : Постоянный
Битрейт                                  : 448 Кбит/сек
Каналы                                   : 6 каналов
Расположение каналов                     : Front: L C R, Side: L R, LFE
Частота                                  : 48,0 КГц
Битовая глубина                          : 16 бит
Метод сжатия                             : С потерями
Задержка видео                           : 14 мс.
Размер потока                            : 318 Мбайт (7%)
Язык                                     : Russian
Default                                  : Да
Forced                                   : Нет

Аудио #2
Идентификатор                            : 3
Формат                                   : AC-3
Формат/Информация                        : Audio Coding 3
Расширение режима                        : CM (complete main)
Параметр Endianness формата              : Big
Идентификатор кодека                     : A_AC3
Продолжительность                        : 1 ч. 39 м.
Вид битрейта                             : Постоянный
Битрейт                                  : 640 Кбит/сек
Каналы                                   : 6 каналов
Расположение каналов                     : Front: L C R, Side: L R, LFE
Частота                                  : 48,0 КГц
Битовая глубина                          : 16 бит
Метод сжатия                             : С потерями
Размер потока                            : 454 Мбайт (10%)
Язык                                     : English
Default                                  : Нет
Forced                                   : Нет

Текст #1
Идентификатор                            : 4
Формат                                   : UTF-8
Идентификатор кодека                     : S_TEXT/UTF8
Идентификатор кодека/Информация          : UTF-8 Plain Text
Заголовок                                : Voronine
Язык                                     : Russian
Default                                  : Да
Forced                                   : Нет

Текст #2
Идентификатор                            : 5
Формат                                   : UTF-8
Идентификатор кодека                     : S_TEXT/UTF8
Идентификатор кодека/Информация          : UTF-8 Plain Text
Язык                                     : English
Default                                  : Нет
Forced                                   : Нет

pb.wtf



Скачать Опасный метод через торрент http://pic1.kartinco.top/images/10/6v6g8.jpg Скачать фильм Опасный метод через торрент бесплантно в хорошем качестве Описание: Сюжет закручен вокруг персон основателей психоанализа Карла Густава Юнга и Зигмунда Фрейда и их сложных взаимоотношений с умной ... 10 10 10
Info! Золотая раздача, скачанное не засчитывается.
Торрент: Зарегистрирован [2015-08-18 15:25] · скачан: 190 раз
Статус: √ проверено
Размер: 4.26 GB
Как cкачать? Как скачать Опасный метод через торрент | qTorrent

% Раздел Тема Автор DL S | L
Фильмы [HD 720p, 1080p] (Хороший звук DUB, MVO) [ 5.7 GB ] Опасный метод / A Dangerous Method [2011 Германия Швейцария биография BDRip 720p] MVO [1 канал] + Dub + AVO [Юрий Сербин] + Subs + Original Messa-fan Скачать
1 | 0
Фильмы 2011 [ 1.45 GB ] Опасный метод / A Dangerous Method [2011 биография HDRip / лицензия] Mr. Freeman Скачать
2 | 0
Фильмы 2011 [ 2.18 GB ] Опасный метод [2011 биография BDRip DUB + Оригинал от HELLYWOOD] ~Relizer~ Скачать
1 | 0
Фильмы [HD 720p, 1080p] (Хороший звук DUB, MVO) [ 9.05 GB ] Опасный метод [2011 биография BDRip DUB ] ~Relizer~ Скачать
1 | 0
Фильмы (DVD фильмы) [ 7.11 GB ] Опасный метод [2011 биография DVD9] R5 voovaz Скачать
1 | 0

28-11-2019 20:33  

Отключить всю рекламу на сайте

    Дорогой пользователь! Огромная просьба, поблагодарите релизера, оцените раздачу и оставьте свои комментарий, если Вы скачали Опасный метод через торрент бесплатно! Внесите свою лепту в развитие PiratBit!
    Комментировать посты могут только пользователи прошедшие не сложную регистрацию
    Показать сообщения:    

    Опасный метод через торрент
    Скачать бесплатно Опасный метод
    Опасный метод скачать торрент
    Опасный метод смотреть онлайн
    Cкачать фильм Опасный метод бесплатно
    Опасный метод скачать торрент в хорошем качестве
    Опасный метод смотреть онлайн бесплатно в хорошем качестве


    Вы не можете начинать темы
    Вы не можете отвечать на сообщения
    Вы не можете редактировать свои сообщения
    Вы не можете удалять свои сообщения
    Вы не можете голосовать в опросах
    Вы не можете прикреплять файлы к сообщениям
    Вы можете скачивать файлы