Ссылка на приватное зеркало нашего сайта всего за 1$. Внимание количество ограничено!!!

2 сезон

iTunes

1 сезон

1

iTunes

iTunes

iTunes

1 сезон

RePack

30

ИГРА 18+

pack

ВАЖНО

!!Акция!!

Alien_RageХит недели

RePack

MK11
pack

Забери бонус

RePack

jed

!!Акция!!

Alien_Rage

RePack

fifa19

RePack

Assassins Creed: Odyssey

RePack

NEED FOR SPEED™ PAYBACK

4 сезон

9 сезон

Бесстыжие 9 сезон

Все сериалы

все сериалы на PB.wtf

RePack

FAR CRY 5
  

Долгая Cтрастная пятница / The Long Good Friday (Джон МакКензи) [1980, триллер, детектив, криминал, драма, BDRip 1080p by msltel] 2 x MVO, AVO pb.wtf

Долгая Cтрастная пятница через торрент pb.wtf

Размер: 17.95 GB | Добавлен: 5 лет 2 мес. назад | Торрент скачан:12 раз
Скачать  

19-08-2015 13:30 Долгая Cтрастная пятница Скачать торрент  

Название: Долгая Cтрастная пятница
Оригинальное название: The Long Good Friday
Год выпуска: 1980
Страна: Великобритания
Жанр: триллер, детектив, криминал, драма
Продолжительность: 01:54:05
Перевод: профессиональный многоголосый, авторский

Режиссёр: Джон МакКензи

В ролях: Боб Хоскинс, Хелен Миррен, Пирс Броснан, Дэйв Кинг, Брайан Маршалл, Дерек Томпсон, Эдди Константин, Пол Фриман, Лео Долан, Кевин МакНэлли, Патти Лав

Описание: Влиятельный британский криминальный босс Хэролд Шэнд собирается заключить крупную сделку, но всё рушит цепь загадочных смертей его подопечных...



Качество: BDRip 1080p Сравнение с исходником
Формат: MKV
Видео кодек: H.264
Аудио кодек: AC3, DTS
Видео: MPEG-4 AVC, 20.2 Mбит/с, 1920x1036, 23,976 кадра/с
Аудио 1: русский, AC3, 192 kbps, 2 ch, 48 kHz [профессиональный многоголосый, вариант 1]
Аудио 2: русский, AC3, 192 kbps, 2 ch, 48 kHz [профессиональный многоголосый, вариант 2]
Аудио 3: русский, DTS, 755 kbps, 6 ch, 48 kHz [авторский, Пётр Карцев]
Аудио 4: английский, AC3, 768 kbps, 1 ch, 48 kHz [оригинал]
Субтитры: английские
Британская академия, 1982 год
Номинации (1):
Лучшая мужская роль (Боб Хоскинс)
Общее
Уникальный идентификатор : 200392399119273350707012104092898125220 (0x96C22C15E5F355729A59C8EBAE7165A4)
Полное имя : D:VideoДолгая Страстная пятница.1980.BDRip.1080p.mkv
Формат : Matroska
Версия формата : Version 4 / Version 2
Размер файла : 18,0 Гбайт
Продолжительность : 1 ч. 54 м.
Общий поток : 22,5 Мбит/сек
Название фильма : BDRip -- STarankov
Дата кодирования : UTC 2015-08-16 04:27:54
Программа кодирования : mkvmerge v8.2.0 ('World of Adventure') 64bit
Библиотека кодирования : libebml v1.3.1 + libmatroska v1.4.2
DURATION : 01:54:00.758000000
NUMBER_OF_FRAMES : 641321
NUMBER_OF_BYTES : 656712764
_STATISTICS_WRITING_APP : mkvmerge v8.2.0 ('World of Adventure') 64bit
_STATISTICS_WRITING_DATE_UTC : 2015-08-16 04:27:54
_STATISTICS_TAGS : BPS DURATION NUMBER_OF_FRAMES NUMBER_OF_BYTES

Видео
Идентификатор : 1
Формат : AVC
Формат/Информация : Advanced Video Codec
Профиль формата : High@L4.1
Параметр CABAC формата : Да
Параметр ReFrames формата : 4 кадра
Идентификатор кодека : V_MPEG4/ISO/AVC
Продолжительность : 1 ч. 54 м.
Битрейт : 20,2 Мбит/сек
Ширина : 1920 пикселей
Высота : 1036 пикселей
Соотношение сторон : 1,85:1
Режим частоты кадров : Постоянный
Частота кадров : 23,976 кадра/сек
Цветовое пространство : YUV
Субдискретизация насыщенности : 4:2:0
Битовая глубина : 8 бит
Тип развёртки : Прогрессивная
Бит/(Пиксели*Кадры) : 0.423
Размер потока : 16,1 Гбайт (90%)
Библиотека кодирования : x264 core 146 r2538 121396c
Настройки программы : cabac=1 / ref=4 / deblock=1:-3:-3 / analyse=0x3:0x113 / me=umh / subme=10 / psy=1 / psy_rd=1.00:0.15 / mixed_ref=1 / me_range=32 / chroma_me=1 / trellis=2 / 8x8dct=1 / cqm=0 / deadzone=21,11 / fast_pskip=1 / chroma_qp_offset=-3 / threads=6 / lookahead_threads=1 / sliced_threads=0 / nr=0 / decimate=1 / interlaced=0 / bluray_compat=0 / constrained_intra=0 / bframes=13 / b_pyramid=2 / b_adapt=2 / b_bias=0 / direct=1 / weightb=1 / open_gop=0 / weightp=2 / keyint=230 / keyint_min=23 / scenecut=40 / intra_refresh=0 / rc_lookahead=40 / rc=crf / mbtree=0 / crf=21.0 / qcomp=0.60 / qpmin=0 / qpmax=69 / qpstep=4 / vbv_maxrate=40000 / vbv_bufsize=50000 / crf_max=0.0 / nal_hrd=none / filler=0 / ip_ratio=1.40 / pb_ratio=1.30 / aq=1:1.00
Язык : English
Default : Да
Forced : Нет
DURATION : 01:54:00.793000000
NUMBER_OF_FRAMES : 164015
NUMBER_OF_BYTES : 17639430682
_STATISTICS_WRITING_APP : mkvmerge v8.2.0 ('World of Adventure') 64bit
_STATISTICS_WRITING_DATE_UTC : 2015-08-16 04:27:54
_STATISTICS_TAGS : BPS DURATION NUMBER_OF_FRAMES NUMBER_OF_BYTES

Аудио #1
Идентификатор : 2
Формат : AC-3
Формат/Информация : Audio Coding 3
Расширение режима : CM (complete main)
Параметр Endianness формата : Big
Идентификатор кодека : A_AC3
Продолжительность : 1 ч. 54 м.
Вид битрейта : Постоянный
Битрейт : 192 Кбит/сек
Каналы : 2 канала
Расположение каналов : Front: L R
Частота : 48,0 КГц
Метод сжатия : С потерями
Размер потока : 157 Мбайт (1%)
Заголовок : MVO (вариант 1)
Язык : Russian
Default : Да
Forced : Нет

Аудио #2
Идентификатор : 3
Формат : AC-3
Формат/Информация : Audio Coding 3
Расширение режима : CM (complete main)
Параметр Endianness формата : Big
Идентификатор кодека : A_AC3
Продолжительность : 1 ч. 54 м.
Вид битрейта : Постоянный
Битрейт : 192 Кбит/сек
Каналы : 2 канала
Расположение каналов : Front: L R
Частота : 48,0 КГц
Метод сжатия : С потерями
Размер потока : 157 Мбайт (1%)
Заголовок : MVO (вариант 2)
Язык : Russian
Default : Нет
Forced : Нет

Аудио #3
Идентификатор : 4
Формат : DTS
Формат/Информация : Digital Theater Systems
Режим : 16
Параметр Endianness формата : Big
Идентификатор кодека : A_DTS
Продолжительность : 1 ч. 54 м.
Вид битрейта : Постоянный
Битрейт : 755 Кбит/сек
Каналы : 6 каналов
Расположение каналов : Front: L C R, Side: L R, LFE
Частота : 48,0 КГц
Битовая глубина : 24 бит
Метод сжатия : С потерями
Размер потока : 616 Мбайт (3%)
Заголовок : AVO (Пётр Карцев)
Язык : Russian
Default : Нет
Forced : Нет

Аудио #4
Идентификатор : 5
Формат : DTS
Формат/Информация : Digital Theater Systems
Режим : 16
Параметр Endianness формата : Big
Идентификатор кодека : A_DTS
Продолжительность : 1 ч. 54 м.
Вид битрейта : Постоянный
Битрейт : 768 Кбит/сек
Каналы : 1 канал
Расположение каналов : Front: C
Частота : 48,0 КГц
Битовая глубина : 24 бит
Метод сжатия : С потерями
Размер потока : 627 Мбайт (3%)
Заголовок : Original
Язык : English
Default : Нет
Forced : Нет

Текст
Идентификатор : 6
Формат : UTF-8
Идентификатор кодека : S_TEXT/UTF8
Идентификатор кодека/Информация : UTF-8 Plain Text
Заголовок : английский (для слабослышащих)
Язык : English
Default : Нет
Forced : Нет
pb.wtf



Скачать Долгая Cтрастная пятница через торрент http://i68.fastpic.ru/big/2015/0817/ce/325d58ae9a1b660e2e2e8197376056ce.jpg Скачать фильм Долгая Cтрастная пятница через торрент бесплантно в хорошем качестве Описание: Влиятельный британский криминальный босс Хэролд Шэнд собирается заключить крупную сделку, но всё рушит цепь загадочных смертей ... 7.8 10 4
Info! Золотая раздача, скачанное не засчитывается.
Торрент: Зарегистрирован [2015-08-19 13:30] · скачан: 12 раз
Статус: √ проверено
Размер: 17.95 GB
Как cкачать? Как скачать Долгая Cтрастная пятница через торрент | qTorrent

% Раздел Тема Автор DL S | L
Фильмы [HD 720p, 1080p] (Хороший звук DUB, MVO) [ 6.96 GB ] Долгая Cтрастная пятница / The Long Good Friday [1980 BDRip 720p by msltel] 2 x MVO AVO msltel Скачать
1 | 0
Фильмы до 2000 г. [ 3.94 GB ] Долгая Cтрастная пятница / The Long Good Friday [1980 BDRip AVC by msltel] 2 x MVO AVO msltel Скачать
1 | 0

28-11-2019 20:33  

Отключить всю рекламу на сайте

    Дорогой пользователь! Огромная просьба, поблагодарите релизера, оцените раздачу и оставьте свои комментарий, если Вы скачали Долгая Cтрастная пятница через торрент бесплатно! Внесите свою лепту в развитие PiratBit!
    Комментировать посты могут только пользователи прошедшие не сложную регистрацию
    Показать сообщения:    

    Долгая Cтрастная пятница через торрент
    Скачать бесплатно Долгая Cтрастная пятница
    Долгая Cтрастная пятница скачать торрент
    Долгая Cтрастная пятница смотреть онлайн
    Cкачать фильм Долгая Cтрастная пятница бесплатно
    Долгая Cтрастная пятница скачать торрент в хорошем качестве
    Долгая Cтрастная пятница смотреть онлайн бесплатно в хорошем качестве


    Вы не можете начинать темы
    Вы не можете отвечать на сообщения
    Вы не можете редактировать свои сообщения
    Вы не можете удалять свои сообщения
    Вы не можете голосовать в опросах
    Вы не можете прикреплять файлы к сообщениям
    Вы можете скачивать файлы