новый адрес
Ссылка на приватное зеркало всего за 1$. Внимание количество ограничено!!!

iTunes

1+1

iTunes

мы

WEB-DL

1

iTunes

Чернобыль

iTunes

Ральф против интернета

Лицензия

ПШазам

Лицензия

Оно 2

Лицензия

30
pack

Вам бонус

ВАЖНО

!!Акция!!

Alien_RageХит недели

RePack

Resident Evil 21

ИГРА 18+

pack

RePack

jed

!!Акция!!

Alien_Rage

RePack

fifa19

RePack

Assassins Creed: Odyssey

RePack

NEED FOR SPEED™ PAYBACK

3 сезон

9 сезон

Бесстыжие 9 сезон

Все сериалы

все сериалы на PB.wtf

RePack

FAR CRY 5
Ребята, катастрофически не хватает 1900р. для оплаты серверов за Октябрь (всвязи с блокировками трафик упал в 3 раза), 1-2р., выручайте.
  

Счастливый рейс (Владимир Немоляев) [1949, СССР, мелодрама, комедия, DVDRip от AVP Studio] pb.wtf

Счастливый рейс через торрент pb.wtf

Размер: 744 MB | Добавлен: 4 года 3 мес. назад | Торрент скачан:14 раз
Скачать  

19-08-2015 18:15 Счастливый рейс Скачать торрент  

Счастливый рейс
Страна: СССР
Производство: Мосфильм

Жанр: мелодрама, комедия
Год выпуска: 1949
Продолжительность: 01:12:48

Перевод: Не требуется
Cубтитры: нет
Оригинальная аудиодорожка: русский

Режиссер: Владимир Немоляев

В ролях:
Николай Крючков, Михаил Жаров, Вера Орлова, Ольга Викландт, Владимир Попов, Нина Федосюк, Анатолий Горюнов, Сергей Антимонов...
Полный список актёров

Описание:
Плоскостный вариант cтереофильма в прокате под названием - "Машина 22-12" (1947).
Шофер Синичкин (Николай Крючков) получил машину "22-12" - старенькую потрепанную полуторку, которая досталась ему "в наследство" от шофера Зачесова (Михаил Жаров), пересевшего на новый "ЗиС". Синичкин отремонтировал машину, и шоферские будни принесли работящему и веселому водителю успех у женщин: к нему стала благоволить диспетчер Телегина, а дорожное происшествие познакомило с милой Фенечкой (Вера Орлова), работающей на бензоколонке. Девушка сумела сделать правильный выбор между Синичкиным и Зачесовым, который в работе и любви искал "легкие пути". Счастливый финал: завгар передал Синичкину "ЗиС", Зачесов снова пересел на "22-12" и начал понемногу исправляться, а Феня и Синичкин сыграли свадьбу. В фильме звучат популярные в прошлом песни. Одна из них - "Здравствуй, столица! Здравствуй, Москва!"

Источник: DVD5 R5
Качество видео: DVDRip
Формат видео: AVI
Видео кодек: XviD
Аудио кодек: MP3
Видео: 640x480 (4:3), 25 fps, XviD ~ 1291 kbps avg, 0.168 bit/pixel
Аудио: 48 kHz, MP3 2.0, 128 kbps

Раздача от:
Общее
Полное имя : Schastlivyy.reys.1949.DVDRip-745_[New-team]_by_AVP_Studio.avi
Формат : AVI
Формат/Информация : Audio Video Interleave
Размер файла : 744 Мбайт
Продолжительность : 1 ч. 12 м.
Общий поток : 1429 Кбит/сек
Программа кодирования : VirtualDubMod 1.5.10.3 | www.virtualdub-fr.org || (build 2550/release)
Библиотека кодирования : VirtualDubMod build 2550/release

Видео
Идентификатор : 0
Формат : MPEG-4 Visual
Профиль формата : Advanced Simple@L5
Параметр BVOP формата : 1
Параметр QPel формата : Нет
Параметр GMC формата : Без точки перехода
Параметр матрицы формата : Выборочная
Идентификатор кодека : XVID
Идентификатор кодека/Подсказка : XviD
Продолжительность : 1 ч. 12 м.
Битрейт : 1291 Кбит/сек
Ширина : 640 пикселей
Высота : 480 пикселей
Соотношение сторон : 4:3
Частота кадров : 25,000 кадров/сек
Цветовое пространство : YUV
Субдискретизация насыщенности : 4:2:0
Битовая глубина : 8 бит
Тип развёртки : Прогрессивная
Метод сжатия : С потерями
Бит/(Пиксели*Кадры) : 0.168
Размер потока : 672 Мбайт (90%)
Библиотека кодирования : XviD 73

Аудио
Идентификатор : 1
Формат : MPEG Audio
Версия формата : Version 1
Профиль формата : Layer 3
Идентификатор кодека : 55
Идентификатор кодека/Подсказка : MP3
Продолжительность : 1 ч. 12 м.
Вид битрейта : Постоянный
Битрейт : 128 Кбит/сек
Каналы : 2 канала
Частота : 48,0 КГц
Метод сжатия : С потерями
Размер потока : 66,6 Мбайт (9%)
Выравнивание : Соединение по промежуткам
Продолжительность промежутка : 40 мс. (1,00 видеокадр)
Время предзагрузки промежутка : 504 мс.
Библиотека кодирования : LAME3.99r
Настройки программы : -m s -V 4 -q 2 -lowpass 17 -b 128
pb.wtf



Скачать Счастливый рейс через торрент http://s017.radikal.ru/i437/1508/bb/737f438bc1a0.png Скачать фильм Счастливый рейс через торрент бесплантно в хорошем качестве Описание:Плоскостный вариант cтереофильма в прокате под названием - "Машина 22-12" (1947).Шофер Синичкин (Николай Крючков) получил машину ... 10 10 1
Торрент: Зарегистрирован [2015-08-19 18:15] · скачан: 14 раз
Статус: √ проверено
Размер: 744 MB
Как cкачать? Как скачать Счастливый рейс через торрент | qTorrent

% Раздел Тема Автор DL S | L
Кино СССР [ 1.09 GB ] Счастливый рейс [1949 СССР DVDRip-AVC от AVP Studio] AVP Studio Скачать
1 | 0
Кино СССР [ 1.09 GB ] Счастливый рейс [1949 СССР DVDRip от AVP Studio] AVP Studio Скачать
1 | 0

28-11-2019 20:33  

Отключить всю рекламу на сайте

    Дорогой пользователь! Огромная просьба, поблагодарите релизера, оцените раздачу и оставьте свои комментарий, если Вы скачали Счастливый рейс через торрент бесплатно! Внесите свою лепту в развитие PiratBit!
    Комментировать посты могут только пользователи прошедшие не сложную регистрацию
    Показать сообщения:    

    Счастливый рейс через торрент
    Скачать бесплатно Счастливый рейс
    Счастливый рейс скачать торрент
    Счастливый рейс смотреть онлайн
    Cкачать фильм Счастливый рейс бесплатно
    Счастливый рейс скачать торрент в хорошем качестве
    Счастливый рейс смотреть онлайн бесплатно в хорошем качестве


    Вы не можете начинать темы
    Вы не можете отвечать на сообщения
    Вы не можете редактировать свои сообщения
    Вы не можете удалять свои сообщения
    Вы не можете голосовать в опросах
    Вы не можете прикреплять файлы к сообщениям
    Вы можете скачивать файлы