новый адрес
Мега распродажа FORZA HORIZON 4 ULTIMATE+ВСЕ DLC+ОНЛАЙН всего за 499р. 349 руб. (супер цена). Внимание количество ограничено!!!

iTunes

1+1

iTunes

мы

iTunes

1

iTunes

Чернобыль

iTunes

Ральф против интернета

Лицензия

ПШазам

Лицензия

Оно 2

Лицензия

30
pack

ВАЖНО

!!Акция!!

Alien_RageХит недели

RePack

Resident Evil 21

ИГРА 18+

pack

RePack

Metro:Exodus

!!Акция!!

Alien_Rage

RePack

fifa19

RePack

Assassins Creed: Odyssey

RePack

NEED FOR SPEED™ PAYBACK

3 сезон

9 сезон

Бесстыжие 9 сезон

Все сериалы

все сериалы на PB.wtf

RePack

FAR CRY 5
Ребята, катастрофически не хватает 1900р. для оплаты серверов за Октябрь (всвязи с блокировками трафик упал в 3 раза), 1-2р., выручайте.
  

Счастливый рейс (Владимир Немоляев) [1949, СССР, мелодрама, комедия, DVDRip-AVC от AVP Studio] pb.wtf

Счастливый рейс через торрент pb.wtf

Размер: 1.09 GB | Добавлен: 4 года 3 мес. назад | Торрент скачан:36 раз
Скачать  

19-08-2015 18:17 Счастливый рейс Скачать торрент  

Счастливый рейс
Страна: СССР
Производство: Мосфильм

Жанр: мелодрама, комедия
Год выпуска: 1949
Продолжительность: 01:12:48

Перевод: Не требуется
Cубтитры: нет
Оригинальная аудиодорожка: русский

Режиссер: Владимир Немоляев

В ролях:
Николай Крючков, Михаил Жаров, Вера Орлова, Ольга Викландт, Владимир Попов, Нина Федосюк, Анатолий Горюнов, Сергей Антимонов...
Полный список актёров

Описание:
Плоскостный вариант cтереофильма в прокате под названием - "Машина 22-12" (1947).
Шофер Синичкин (Николай Крючков) получил машину "22-12" - старенькую потрепанную полуторку, которая досталась ему "в наследство" от шофера Зачесова (Михаил Жаров), пересевшего на новый "ЗиС". Синичкин отремонтировал машину, и шоферские будни принесли работящему и веселому водителю успех у женщин: к нему стала благоволить диспетчер Телегина, а дорожное происшествие познакомило с милой Фенечкой (Вера Орлова), работающей на бензоколонке. Девушка сумела сделать правильный выбор между Синичкиным и Зачесовым, который в работе и любви искал "легкие пути". Счастливый финал: завгар передал Синичкину "ЗиС", Зачесов снова пересел на "22-12" и начал понемногу исправляться, а Феня и Синичкин сыграли свадьбу. В фильме звучат популярные в прошлом песни. Одна из них - "Здравствуй, столица! Здравствуй, Москва!"

Источник: DVD5 R5
Качество видео: DVDRip-AVC
Формат видео: MKV
Видео кодек: H.264
Аудио кодек: AC3
Видео: 712->758x568 (4:3), 25 fps, H264 ~ 1948 kbps avg, 0.193 bit/pixel
Аудио: 48 kHz, Dolby Digital AC3 2.0, 192 kbps

Раздача от:
Общее
Полное имя : Schastlivyy.reys.1949.DVDRip-AVC_[New-team]_by_AVP_Studio.mkv
Формат : Matroska
Версия формата : Version 2
Размер файла : 1,09 Гбайт
Продолжительность : 1 ч. 12 м.
Общий поток : 2142 Кбит/сек
Дата кодирования : UTC 2015-08-18 16:49:29
Программа кодирования : mkvmerge v6.1.0 ('Old Devil') built on Mar 4 2013 09:10:42
Библиотека кодирования : libebml v1.3.0 + libmatroska v1.4.0

Видео
Идентификатор : 1
Формат : AVC
Формат/Информация : Advanced Video Codec
Профиль формата : High@L4.1
Параметр CABAC формата : Да
Параметр ReFrames формата : 8 кадров
Идентификатор кодека : V_MPEG4/ISO/AVC
Продолжительность : 1 ч. 12 м.
Битрейт : 1948 Кбит/сек
Ширина : 712 пикселей
Высота : 568 пикселей
Соотношение сторон : 4:3
Режим частоты кадров : Постоянный
Частота кадров : 25,000 кадров/сек
Цветовое пространство : YUV
Субдискретизация насыщенности : 4:2:0
Битовая глубина : 8 бит
Тип развёртки : Прогрессивная
Бит/(Пиксели*Кадры) : 0.193
Размер потока : 993 Мбайт (89%)
Библиотека кодирования : x264 core 130 r2273 b3065e6
Настройки программы : cabac=1 / ref=8 / deblock=1:-2:-1 / analyse=0x3:0x113 / me=umh / subme=10 / psy=1 / psy_rd=1.00:0.05 / mixed_ref=1 / me_range=32 / chroma_me=1 / trellis=2 / 8x8dct=1 / cqm=0 / deadzone=21,11 / fast_pskip=0 / chroma_qp_offset=-3 / threads=6 / lookahead_threads=1 / sliced_threads=0 / nr=0 / decimate=0 / interlaced=0 / bluray_compat=0 / constrained_intra=0 / bframes=8 / b_pyramid=2 / b_adapt=2 / b_bias=0 / direct=3 / weightb=1 / open_gop=0 / weightp=2 / keyint=250 / keyint_min=25 / scenecut=40 / intra_refresh=0 / rc=2pass / mbtree=0 / bitrate=1948 / ratetol=1.0 / qcomp=0.60 / qpmin=0 / qpmax=69 / qpstep=4 / cplxblur=20.0 / qblur=0.5 / ip_ratio=1.40 / pb_ratio=1.30 / aq=1:1.00
Default : Да
Forced : Нет

Аудио
Идентификатор : 2
Формат : AC-3
Формат/Информация : Audio Coding 3
Расширение режима : CM (complete main)
Параметр Endianness формата : Big
Идентификатор кодека : A_AC3
Продолжительность : 1 ч. 12 м.
Вид битрейта : Постоянный
Битрейт : 192 Кбит/сек
Каналы : 2 канала
Расположение каналов : Front: L R
Частота : 48,0 КГц
Метод сжатия : С потерями
Размер потока : 100,0 Мбайт (9%)
Default : Да
Forced : Нет
pb.wtf



Скачать Счастливый рейс через торрент http://s017.radikal.ru/i437/1508/bb/737f438bc1a0.png Скачать фильм Счастливый рейс через торрент бесплантно в хорошем качестве Описание:Плоскостный вариант cтереофильма в прокате под названием - "Машина 22-12" (1947).Шофер Синичкин (Николай Крючков) получил машину ... 10 10 1
Торрент: Зарегистрирован [2015-08-19 18:17] · скачан: 36 раз
Статус: √ проверено
Размер: 1.09 GB
Как cкачать? Как скачать Счастливый рейс через торрент | qTorrent

% Раздел Тема Автор DL S | L
Кино СССР [ 744 MB ] Счастливый рейс [1949 СССР DVDRip от AVP Studio] AVP Studio Скачать
1 | 0
Кино СССР [ 1.09 GB ] Счастливый рейс [1949 СССР DVDRip от AVP Studio] AVP Studio Скачать
1 | 0


>> Регистрируемся здесь <<






Отзывы и комментарии о схеме читаем и пишем здесь: ---> Отзывы и комментарии о схеме

Новые благодарочки в телеграм довольных пользователей:
скриншот   скриншот   скриншот   скриншот   скриншот
    Дорогой пользователь! Огромная просьба, поблагодарите релизера, оцените раздачу и оставьте свои комментарий, если Вы скачали Счастливый рейс через торрент бесплатно! Внесите свою лепту в развитие PiratBit!
    Комментировать посты могут только пользователи прошедшие не сложную регистрацию
    Показать сообщения:    

    Счастливый рейс через торрент
    Скачать бесплатно Счастливый рейс
    Счастливый рейс скачать торрент
    Счастливый рейс смотреть онлайн
    Cкачать фильм Счастливый рейс бесплатно
    Счастливый рейс скачать торрент в хорошем качестве
    Счастливый рейс смотреть онлайн бесплатно в хорошем качестве


    Вы не можете начинать темы
    Вы не можете отвечать на сообщения
    Вы не можете редактировать свои сообщения
    Вы не можете удалять свои сообщения
    Вы не можете голосовать в опросах
    Вы не можете прикреплять файлы к сообщениям
    Вы можете скачивать файлы