Ссылка на приватное зеркало нашего сайта всего за 1$. Внимание количество ограничено!!!

2 сезон

iTunes

1 сезон

1

2 сезон

2 сезон

iTunes

1 сезон

RePack

30

Ultimate

ВАЖНО

ИГРА 18+

pack

RePack

MK11
pack

Забери бонус

RePack

jed

!!Акция!!

Alien_Rage

RePack

fifa19

RePack

Assassins Creed: Odyssey

RePack

NEED FOR SPEED™ PAYBACK

4 сезон

9 сезон

Бесстыжие 9 сезон

Все сериалы

все сериалы на PB.wtf

RePack

FAR CRY 5
  

Покажите мне героя / Show Me a Hero / Серии: 1-4 из 6 (Пол Хаггис / Paul Haggis) [2015, США, драма, криминал, история, HDTVRip 720p] MVO [Amedia] + Original + Sub от R.G. PiratFilms pb.wtf

Покажите мне героя через торрент pb.wtf

Размер: 9.55 GB | Добавлен: 5 лет 2 мес. назад | Торрент скачан:2 раза
Скачать  

19-08-2015 22:49 Покажите мне героя Скачать торрент  

Покажите мне героя / Show Me a Hero

Год выпуска: 2015
Страна: США
Жанр: драма, криминал, история
Продолжительность: 00:52:00
Перевод:
|Профессиональный (многоголосый, закадровый) SDI Media по заказу Амедиа|
Субтитры: русские (Amedia)

Режиссер: Пол Хаггис / Paul Haggis
В ролях: Оскар Айзек (Nick Wasicsko), Карла Кеведо (Nay Noe Wasicsko), Джон Бернтал (Michael H. Sussman), Альфред Молина (Henry J. Spallone), Вайнона Райдер (Vinni Restiano), A.J. Ackleson (Protestor), Джеймс Белуши (Angelo Martinelli), Дэвид Уэйн Фокс (Yonkers Resident), Стив Гарфанти (Officer Balducci), Mahaleia Gray (Girl in the Neighborhood), Ильфенеш Хадера (Alma Febles), Брианна Хорн (Gail Henderson)
Описание:
Молодой мэр вынужден построить жилье для малообеспеченных слоев населения в престижном районе города по распоряжению федерального суда. Это решение поставило крест на его политической карьере и стало причиной волны недовольства горожан, которое вылилось в протесты и беспорядки на улицах города.

Рейтинг

Качество: HDTVRip 720p |Исходник: Show Me a Hero 2015 1080i HDTV MPEG2 DD5.1-CtrlHD
Формат: MKV
Видео кодек: AVC
Аудио кодек: AC3
Видео: 1280x718 (16:9), 23.976 fps, 5 585 Kbps (0.253 bit/pixel)
Аудио №1: русский / AC3 / 5.1 / 48 kHz / 384 kbps / 16 bit |Amedia|
Аудио №2: английский / AC3 / 5.1 / 48 kHz / 384 kbps / 16 bit
Работа со звуком: messafan
За запись Амедиа большое спасибо BS666.
За запись 3й и 4й серии спасибо Nez

Рип: by Messa-fan

Код:

x264 [info]: frame I:602   Avg QP:12.66  size:136304
x264 [info]: frame P:16953 Avg QP:15.03  size: 65111
x264 [info]: frame B:58015 Avg QP:17.33  size: 17491
x264 [info]: consecutive B-frames:  2.4%  4.1%  7.2% 20.0% 14.6% 46.1%  4.3%  0.8%  0.4%

Код:

General
Unique ID                                : 196359712415377791713074154494899385497 (0x93B98147C2488E1EB2DA0F550DDDF499)
Complete name                            : Show.Me.a.Hero.2015.720p.HDTV.Rus.Eng.Sub\Show.Me.a.Hero.2015.E01.Part.One.720p.HDTV.Rus.Eng.Sub.mkv
Format                                   : Matroska
Format version                           : Version 4 / Version 2
File size                                : 2.33 GiB
Duration                                 : 52mn 32s
Overall bit rate                         : 6 356 Kbps
Movie name                               : Show Me a Hero (2015) - Part One - 720p encode by messafan
Encoded date                             : UTC 2015-08-22 11:56:32
Writing application                      : mkvmerge v6.7.0 ('Back to the Ground') 64bit built on Jan  8 2014 15:10:52
Writing library                          : libebml v1.3.0 + libmatroska v1.4.1

Video
ID                                       : 1
Format                                   : AVC
Format/Info                              : Advanced Video Codec
Format profile                           : High@L4.1
Format settings, CABAC                   : Yes
Format settings, ReFrames                : 9 frames
Codec ID                                 : V_MPEG4/ISO/AVC
Duration                                 : 52mn 32s
Bit rate                                 : 5 585 Kbps
Width                                    : 1 280 pixels
Height                                   : 718 pixels
Display aspect ratio                     : 16:9
Frame rate mode                          : Constant
Frame rate                               : 23.976 fps
Color space                              : YUV
Chroma subsampling                       : 4:2:0
Bit depth                                : 8 bits
Scan type                                : Progressive
Bits/(Pixel*Frame)                       : 0.253
Stream size                              : 2.00 GiB (86%)
Writing library                          : x264 core 142 r2479kMod dd79a61
Encoding settings                        : cabac=1 / ref=9 / deblock=1:-3:-3 / analyse=0x3:0x113 / me=umh / subme=11 / psy=1 / fade_compensate=0.00 / psy_rd=1.00:0.03 / mixed_ref=1 / me_range=32 / chroma_me=1 / trellis=2 / 8x8dct=1 / cqm=0 / deadzone=21,11 / fast_pskip=0 / chroma_qp_offset=-5 / threads=6 / lookahead_threads=1 / sliced_threads=0 / nr=0 / decimate=1 / interlaced=0 / bluray_compat=0 / constrained_intra=0 / fgo=0 / bframes=8 / b_pyramid=2 / b_adapt=2 / b_bias=0 / direct=3 / weightb=1 / open_gop=0 / weightp=2 / keyint=230 / keyint_min=23 / scenecut=40 / intra_refresh=0 / rc_lookahead=40 / rc=2pass / mbtree=0 / bitrate=5585 / ratetol=1.0 / qcomp=0.70 / qpmin=0 / qpmax=69 / qpstep=4 / cplxblur=20.0 / qblur=0.5 / vbv_maxrate=50000 / vbv_bufsize=65000 / nal_hrd=none / filler=0 / ip_ratio=1.40 / pb_ratio=1.30 / aq=1:0.90
Language                                 : English
Default                                  : Yes
Forced                                   : No

Audio #1
ID                                       : 2
Format                                   : AC-3
Format/Info                              : Audio Coding 3
Mode extension                           : CM (complete main)
Format settings, Endianness              : Big
Codec ID                                 : A_AC3
Duration                                 : 52mn 32s
Bit rate mode                            : Constant
Bit rate                                 : 384 Kbps
Channel(s)                               : 6 channels
Channel positions                        : Front: L C R, Side: L R, LFE
Sampling rate                            : 48.0 KHz
Bit depth                                : 16 bits
Compression mode                         : Lossy
Stream size                              : 144 MiB (6%)
Title                                    : MVO Amedia 5.1
Language                                 : Russian
Default                                  : Yes
Forced                                   : No

Audio #2
ID                                       : 3
Format                                   : AC-3
Format/Info                              : Audio Coding 3
Mode extension                           : CM (complete main)
Format settings, Endianness              : Big
Codec ID                                 : A_AC3
Duration                                 : 52mn 32s
Bit rate mode                            : Constant
Bit rate                                 : 384 Kbps
Channel(s)                               : 6 channels
Channel positions                        : Front: L C R, Side: L R, LFE
Sampling rate                            : 48.0 KHz
Bit depth                                : 16 bits
Compression mode                         : Lossy
Stream size                              : 144 MiB (6%)
Title                                    : English 5.1
Language                                 : English
Default                                  : No
Forced                                   : No

Text
ID                                       : 4
Format                                   : UTF-8
Codec ID                                 : S_TEXT/UTF8
Codec ID/Info                            : UTF-8 Plain Text
Title                                    : Rus sub (Amedia)
Language                                 : Russian
Default                                  : No
Forced                                   : No



  • Экранизация одноименного романа Лизы Белкин.




  • Внимание! Раздача ведётся путём добавления новых серий; при каждом добавлении создётся новый торрент. Чтобы начать докачку новой серии, пользователям необходимо сделать следующее:
    (1) остановить скачивание,
    (2) удалить старый торрент у себя из клиента (старые серии удалять не надо),
    (3) скачать новый торрент и запустить его у себя в клиенте вместо старого, при этом указать клиенту путь в старую папку куда и должно происходить скачивание новых серий.
    Ваш клиент при этом должен произвести хеширование (проверку) старой папки (если не производит сам - помогите ему сделать это), и будет докачивать только те серии которых у вас ещё нет. Старые серии при этом не удаляются, а продолжают раздаваться!
    Eсли вы уже удалили старые серии, то предотвратить повторную закачку старых серий можно, отжав галочку в соответсвующих местах при запуске нового торрента. По возможности, желательно не удалять старые серии как можно дольше чтобы релизёр не столько продолжал раздавать старые серии, а смог сконцентрироваться на новых.
    pb.wtf
    KMessa-fan писал(а):

    Добавлен третий и четвёртый эпизод.



    Скачать Покажите мне героя через торрент http://i69.fastpic.ru/big/2015/0819/99/c15afa502ec59d3b9ab7932903031999.jpg Скачать фильм Покажите мне героя через торрент бесплантно в хорошем качестве Описание: Молодой мэр вынужден построить жилье для малообеспеченных слоев населения в престижном районе города по распоряжению федерального ... 7.8 10 4
    Info! Золотая раздача, скачанное не засчитывается.
    Торрент: Зарегистрирован [2015-09-09 17:14] · скачан: 2 раз
    Статус: √ проверено
    Размер: 9.55 GB
    Как cкачать? Как скачать Покажите мне героя через торрент | qTorrent



    Последний раз редактировалось: Messa-fan (2015-09-09 17:14), всего редактировалось 4 раз(а)

    28-11-2019 20:33  

    Отключить всю рекламу на сайте

    22-08-2015 12:11 Покажите мне героя Скачать торрент  

    22.08.15 E01 Замена на лучшее качество видео.pb.wtf



    25-08-2015 11:48 Покажите мне героя Скачать торрент  

    25.08.15 Добавлен второй эпизод.pb.wtf



    27-12-2015 12:59 Покажите мне героя Скачать торрент  

    А когда остальные серии появятся?pb.wtf



    27-12-2015 15:16 Покажите мне героя Скачать торрент  

    bober100, не раньше НГpb.wtf



      Дорогой пользователь! Огромная просьба, поблагодарите релизера, оцените раздачу и оставьте свои комментарий, если Вы скачали Покажите мне героя через торрент бесплатно! Внесите свою лепту в развитие PiratBit!
      Комментировать посты могут только пользователи прошедшие не сложную регистрацию
      Показать сообщения:    

      Покажите мне героя через торрент
      Скачать бесплатно Покажите мне героя
      Покажите мне героя скачать торрент
      Покажите мне героя смотреть онлайн
      Cкачать фильм Покажите мне героя бесплатно
      Покажите мне героя скачать торрент в хорошем качестве
      Покажите мне героя смотреть онлайн бесплатно в хорошем качестве


      Вы не можете начинать темы
      Вы не можете отвечать на сообщения
      Вы не можете редактировать свои сообщения
      Вы не можете удалять свои сообщения
      Вы не можете голосовать в опросах
      Вы не можете прикреплять файлы к сообщениям
      Вы можете скачивать файлы