Доктор Стрэндж

Лицензия

Добыча

Дубляж

Уэнсдэй

1 сезон

Тор

Дубляж

В эфире

Дубляж

Там, где раки поют

MVO

Властелин колец

1 сезон

Deluxe

pack

Рекомендуем

30

Пиратка

ВАЖНО

ВАЖНО

Ghostwire

Пиратка

jed

RePack

nioh2

RePack

RDR2

RePack

NEED FOR SPEED™ PAYBACK

RePack

скачать торрент

Кинопоиск HD

Острые козырьки 6 сезон

6 сезон

FAR CRY 6

RePack

скачать торрент

Лицензия

скачать торрент

MVO

1

1 сезон

скачать торрент

1 сезон

скачать торрент

Лицензия

  

Безумный Макс: Дорога ярости (Джордж Миллер) [2015 г., Фантастика, боевик, триллер, приключения, Blu-ray, Дубляж [iTunes]]

Безумный Макс: Дорога ярости через торрент pb.wtf

Размер: 42.78 GB | Добавлен: 7 лет 3 мес. назад | Торрент скачан:24 раза
Смотреть онлайн | Скачать   

20-08-2015 19:11 Безумный Макс: Дорога ярости Скачать торрент  

Безумный Макс: Дорога ярости / Mad Max: Fury Road
Год выпуска: 2015
Страна: Австралия, США
Жанр: Фантастика, боевик, триллер, приключения
Продолжительность: 02:00:23
Перевод: Дубляж [iTunes]+французский+испанский+Оригинал
Субтитры: Русские, английские, испанские, французские

Режиссер: Джордж Миллер

В ролях: Том Харди, Шарлиз Терон, Николас Холт, Хью Кияс-Бёрн, Джош Хелман, Нэйтан Джонс, Зои Кравиц, Роузи Хантингтон-Уайтли, Райли Кио, Эбби Ли, Кортни Итон, Джон Ховард, Ричард Картер, Иота, Энгус Сэмпсон, Дженнифер Хэйгэн, Меган Гэйл, Мелисса Яффер, Мелита Юришич, Джиллиан Джонс

Описание: Вскоре после отмщения за смерть жены и сына, Макс Рокатански покинул ряды «Основного силового патруля» и уехал в глушь, где скитается в одиночестве, пока мир медленно падает в последствии нефтяного кризиса и глобальной войны. Не имея ничего, кроме своей машины «Перехватчик», Максу предстоит научиться, как выжить в пост-апокалиптической пустоши и сражаться с жестокими, безжалостными воинами, которые населяют её.

Качество: Blu-ray
Формат: BDMV
Видео кодек: H.264
Аудио кодек: AC3-DTS
Видео: MPEG-4 AVC, (1920x1080),24882 Кбит/с, 23.976 кадра/сек
Аудио#1: DTS, 6 ch,1509 kbps (Rus) 48.0 KHz Дублированный (iTunes Russia)
Аудио#2: DTS, 6 ch,1509 kbps (Eng) 48.0 KHz Оригинал
Аудио#3: AC3, 6 ch,448 kbps (Eng) 48.0 KHz Оригинал
Аудио#4: AC3, 6 ch,448 kbps (Frence) 48.0 KHz французский
Аудио#5: AC3, 6 ch,448 kbps (Span) 48.0 KHz испанский
скриншот   скриншот   скриншот  

Тип потока: Видео
Длительность: 02:00:23
Кодек: AVC
Кодек/описание: Advanced Video Codec
Кодек/профиль: [email protected]
Кодек/ID: 27
Кодек/CABAC: Yes
Кодек/ReFrames: 2 frames
Размеры изображения: 1920 x 1080 (16:9)
Частота кадров: 23.976 fps
Битрейт/тип: VBR
Цветовое пространство: YUV
Тип развёртки: Progressive
Колориметрия: 4:2:0
Глубина: 8 bits
:
Тип потока: Звук #1
Длительность: 02:00:23.382
Кодек: DTS
Кодек/описание: Digital Theater Systems
Кодек/профиль: MA / Core
Режим смешивания: Stream extension
Кодек/ID: 134
Частота дискретизации: 48.0 KHz
Каналов: 8 channels / 6 channels
Битрейт: Unknown / 1 509 Kbps
Битрейт/тип: Variable
Глубина: 24 bits
Метод сжатия: Lossless / Lossy
:
Тип потока: Звук #2
Длительность: 02:00:23.392
Кодек: AC-3
Кодек/описание: Audio Coding 3
Кодек/ID: 129
Частота дискретизации: 48.0 KHz
Каналов: 6 channels
Битрейт: 448 Kbps
Битрейт/тип: Constant
Размер потока: 386 MiB (1%)
Глубина: 16 bits
Метод сжатия: Lossy
:
Тип потока: Звук #3
Длительность: 02:00:23.392
Кодек: AC-3
Кодек/описание: Audio Coding 3
Кодек/ID: 129
Частота дискретизации: 48.0 KHz
Каналов: 6 channels
Битрейт: 448 Kbps
Битрейт/тип: Constant
Размер потока: 386 MiB (1%)
Глубина: 16 bits
Метод сжатия: Lossy
:
Тип потока: Звук #4
Длительность: 02:00:23.392
Кодек: AC-3
Кодек/описание: Audio Coding 3
Кодек/ID: 129
Частота дискретизации: 48.0 KHz
Каналов: 6 channels
Битрейт: 448 Kbps
Битрейт/тип: Constant
Размер потока: 386 MiB (1%)
Глубина: 16 bits
Метод сжатия: Lossy
:
Тип потока: Звук #5
Длительность: 02:00:23.382
Кодек: DTS
Кодек/описание: Digital Theater Systems
Кодек/профиль: MA / Core
Режим смешивания: Stream extension
Кодек/ID: 134
Частота дискретизации: 48.0 KHz
Каналов: 8 channels / 6 channels
Битрейт: Unknown / 1 509 Kbps
Битрейт/тип: Variable
Глубина: 24 bits
Метод сжатия: Lossless / Lossy
:
Тип потока: Субтитры #1
Формат: PGS
:
Тип потока: Субтитры #2
Формат: PGS
:
Тип потока: Субтитры #3
Формат: PGS
:
Тип потока: Субтитры #4
Формат: PGS
:
Тип потока: Субтитры #5
Формат: PGS
:
Тип потока: Субтитры #6
Формат: PGS
:
Тип потока: Субтитры #7
Формат: PGS




Скачать Безумный Макс: Дорога ярости через торрент https://pic1.kartinco.top/images/10/5zm4r.jpg Скачать, смотреть онлайн Безумный Макс: Дорога ярости бесплантно в хорошем качестве Описание: Вскоре после отмщения за смерть жены и сына, Макс Рокатански покинул ряды «Основного силового патруля» и уехал в глушь, где ... 7.9 10 8
Info! Золотая раздача, скачанное не засчитывается.
Торрент: Зарегистрирован [2015-08-20 19:11] · скачан: 24 раз
Статус: √ проверено
Размер: 42.78 GB
Как cкачать? Как скачать Безумный Макс: Дорога ярости через торрент | UTorrent

% Раздел Тема Автор DL S | L
Фильмы [HD 720p, 1080p] (Хороший звук DUB, MVO) [ 8.1 GB ] Безумный Макс: Дорога ярости / Mad Max: Fury Road | Лицензия | 1080p bober100 Скачать
1 | 0
Ultra HD (UHD: 2K, 4K, 8K) [ 45.43 GB ] Безумный Макс: Дорога ярости / Mad Max: Fury Road | DUB | 2160p sheker187 Скачать
1 | 0
Ultra HD (UHD: 2K, 4K, 8K) [ 26.19 GB ] Безумный Макс: Дорога ярости / Mad Max: Fury Road | Дубляж | 2160p sheker187 Скачать
1 | 0
Ultra HD (UHD: 2K, 4K, 8K) [ 53.08 GB ] Безумный Макс: Дорога ярости / Mad Max: Fury Road | Лицензия | 2160p bober100 Скачать
2 | 0
Фильмы [HD 720p, 1080p] (Хороший звук DUB, MVO) [ 9.74 GB ] Безумный Макс: Дорога ярости | Лицензия | 720p от potroks potroks Скачать
2 | 0
Фильмы с авторской озвучкой [ 2.05 GB ] Безумный Макс: Дорога ярости / Mad Max: Fury Road | AVO | BDRip killermax2013 Скачать
1 | 0
Ultra HD (UHD: 2K, 4K, 8K) [ 76.51 GB ] Безумный Макс: Дорога ярости / Mad Max: Fury Road | DUB | 2160p sheker187 Скачать
2 | 0

28-11-2019 20:33  


Отключить вcю реклaмy на сайте, в т.ч. и в плеере онлайн просмотра!

24-08-2015 05:34 Безумный Макс: Дорога ярости Скачать торрент  

:shoot2: гав-но !!! worry no



    Дорогой пользователь! Огромная просьба, поблагодарите релизера, оцените раздачу и оставьте свои комментарий, если Вы скачали Безумный Макс: Дорога ярости через торрент бесплатно!!
    Комментировать посты могут только пользователи прошедшие не сложную регистрацию
    Показать сообщения:    


    Безумный Макс: Дорога ярости через торрент
    Скачать бесплатно Безумный Макс: Дорога ярости
    Безумный Макс: Дорога ярости скачать торрент
    Безумный Макс: Дорога ярости смотреть онлайн
    Cкачать фильм Безумный Макс: Дорога ярости бесплатно
    Безумный Макс: Дорога ярости скачать торрент в хорошем качестве
    Безумный Макс: Дорога ярости смотреть онлайн бесплатно в хорошем качестве
    Вы не можете начинать темы
    Вы не можете отвечать на сообщения
    Вы не можете редактировать свои сообщения
    Вы не можете удалять свои сообщения
    Вы не можете голосовать в опросах
    Вы не можете прикреплять файлы к сообщениям
    Вы можете скачивать файлы
    Безумный Макс: Дорога ярости [2015 г., Фантастика, боевик, триллер, приключения, Blu-ray, Дубляж [iTunes]] смотреть онлайн, скачать торрент picoco.icu