новый адрес
Ссылка на приватное зеркало всего за 1$. Внимание количество ограничено!!!

iTunes

1+1

iTunes

мы

WEB-DL

1

iTunes

Чернобыль

iTunes

Ральф против интернета

Лицензия

ПШазам

Лицензия

Оно 2

Лицензия

30
pack

Вам бонус

ВАЖНО

!!Акция!!

Alien_RageХит недели

RePack

Resident Evil 21

ИГРА 18+

pack

RePack

jed

!!Акция!!

Alien_Rage

RePack

fifa19

RePack

Assassins Creed: Odyssey

RePack

NEED FOR SPEED™ PAYBACK

3 сезон

9 сезон

Бесстыжие 9 сезон

Все сериалы

все сериалы на PB.wtf

RePack

FAR CRY 5
Ребята, катастрофически не хватает 1900р. для оплаты серверов за Октябрь (всвязи с блокировками трафик упал в 3 раза), 1-2р., выручайте.
  

Встреча на Эльбе (Григорий Александров) [1949, СССР, военный, DVDRip от AVP Studio] pb.wtf

Встреча на Эльбе через торрент pb.wtf

Размер: 744 MB | Добавлен: 4 года 3 мес. назад | Торрент скачан:9 раз
Скачать  

20-08-2015 19:26 Встреча на Эльбе Скачать торрент  

Встреча на Эльбе
Страна: СССР
Производство: Мосфильм

Жанр: военный
Год выпуска: 1949
Продолжительность: 01:37:25

Перевод: Не требуется
Cубтитры: нет
Оригинальная аудиодорожка: русский

Режиссер: Григорий Александров

В ролях:
Владлен Давыдов, Константин Нассонов, Борис Андреев, Михаил Названов, Любовь Орлова, Иван Любезнов, Владимир Владиславский, Фаина Раневская, Эраст Гарин, Сергей Ценин, Юрий Юровский, Геннадий Юдин, Виктор Кулаков, Лидия Сухаревская, М. Мамин, Николай Никитич, Пётр Старковский, Борис Свобода, Андрей Файт...
Полный список актёров

Описание:
Советские и американские войска встречаются на берегах Эльбы в последние дни Великой отечественной войны. Советское командование пытается наладить мирную жизнь в разоренной Германии. Американцы же с помощью бывшего нациста пытаются получить секретные военные разработки…

Источник: DVD5 R5
Качество видео: DVDRip
Формат видео: AVI
Видео кодек: XviD
Аудио кодек: MP3
Видео: 592x432 (1,370:1), 25 fps, XviD ~ 931 kbps avg, 0.146 bit/pixel
Аудио: 48 kHz, MP3 2.0, 128 kbps

Раздача от:
Общее
Полное имя : Vstrecha.na.Jelbe.1949.DVDRip-745_[New-team]_by_AVP_Studio.avi
Формат : AVI
Формат/Информация : Audio Video Interleave
Размер файла : 744 Мбайт
Продолжительность : 1 ч. 37 м.
Общий поток : 1068 Кбит/сек
Программа кодирования : VirtualDubMod 1.5.10.3 | www.virtualdub-fr.org || (build 2550/release)
Библиотека кодирования : VirtualDubMod build 2550/release

Видео
Идентификатор : 0
Формат : MPEG-4 Visual
Профиль формата : Advanced Simple@L5
Параметр BVOP формата : 1
Параметр QPel формата : Нет
Параметр GMC формата : Без точки перехода
Параметр матрицы формата : Выборочная
Идентификатор кодека : XVID
Идентификатор кодека/Подсказка : XviD
Продолжительность : 1 ч. 37 м.
Битрейт : 931 Кбит/сек
Ширина : 592 пикселя
Высота : 432 пикселя
Соотношение сторон : 1,370
Частота кадров : 25,000 кадров/сек
Цветовое пространство : YUV
Субдискретизация насыщенности : 4:2:0
Битовая глубина : 8 бит
Тип развёртки : Прогрессивная
Метод сжатия : С потерями
Бит/(Пиксели*Кадры) : 0.146
Размер потока : 649 Мбайт (87%)
Библиотека кодирования : XviD 73

Аудио
Идентификатор : 1
Формат : MPEG Audio
Версия формата : Version 1
Профиль формата : Layer 3
Идентификатор кодека : 55
Идентификатор кодека/Подсказка : MP3
Продолжительность : 1 ч. 37 м.
Вид битрейта : Постоянный
Битрейт : 128 Кбит/сек
Каналы : 2 канала
Частота : 48,0 КГц
Метод сжатия : С потерями
Размер потока : 88,9 Мбайт (12%)
Выравнивание : Соединение по промежуткам
Продолжительность промежутка : 40 мс. (1,00 видеокадр)
Время предзагрузки промежутка : 504 мс.
Библиотека кодирования : LAME3.99r
Настройки программы : -m s -V 4 -q 2 -lowpass 17 -b 128
pb.wtf



Скачать Встреча на Эльбе через торрент http://s017.radikal.ru/i414/1508/aa/12c977f8e28c.png Скачать фильм Встреча на Эльбе через торрент бесплантно в хорошем качестве Описание:Советские и американские войска встречаются на берегах Эльбы в последние дни Великой отечественной войны. Советское командование ... 10 10 1
Торрент: Зарегистрирован [2015-08-20 19:26] · скачан: 9 раз
Статус: √ проверено
Размер: 744 MB
Как cкачать? Как скачать Встреча на Эльбе через торрент | qTorrent

% Раздел Тема Автор DL S | L
Кино СССР [ 1.46 GB ] Встреча на Эльбе [1949 СССР военный DVDRip-AVC от AVP Studio] AVP Studio Скачать
1 | 0
Кино СССР [ 1.46 GB ] Встреча на Эльбе [1949 СССР военный DVDRip от AVP Studio] AVP Studio Скачать
1 | 0

28-11-2019 20:33  

Отключить всю рекламу на сайте

    Дорогой пользователь! Огромная просьба, поблагодарите релизера, оцените раздачу и оставьте свои комментарий, если Вы скачали Встреча на Эльбе через торрент бесплатно! Внесите свою лепту в развитие PiratBit!
    Комментировать посты могут только пользователи прошедшие не сложную регистрацию
    Показать сообщения:    

    Встреча на Эльбе через торрент
    Скачать бесплатно Встреча на Эльбе
    Встреча на Эльбе скачать торрент
    Встреча на Эльбе смотреть онлайн
    Cкачать фильм Встреча на Эльбе бесплатно
    Встреча на Эльбе скачать торрент в хорошем качестве
    Встреча на Эльбе смотреть онлайн бесплатно в хорошем качестве


    Вы не можете начинать темы
    Вы не можете отвечать на сообщения
    Вы не можете редактировать свои сообщения
    Вы не можете удалять свои сообщения
    Вы не можете голосовать в опросах
    Вы не можете прикреплять файлы к сообщениям
    Вы можете скачивать файлы